WWE SmackDown 08 Jan 2021 HDTV Star /720p DX-TV

WWE SmackDown 08 Jan 2021 HDTV Star /720p DX-TV

WWE SmackDown 08 Jan

 WWE SmackDown 08 Jan

 

Download Links with premium High Speed   

 

 

 

nitroflare.com

http://shrt10.com/VsYW1
http://shrt10.com/Hdas3pm

 

 

rapidgator.net

http://shrt10.com/RpxS9a2ZF
http://shrt10.com/HnHbkJv

 

 

uploaded.net

http://shrt10.com/ckCpg
http://shrt10.com/VrfwJrcj

 

 

uploadgig.com

http://shrt10.com/i3NJ8ou7
http://shrt10.com/NzSiKNHcS

 

WWE SmackDown 08 Jan online

 

Server 1

 

 

 

 

WWE SmackDown 08 Jan

 

 

 

 

Server-2

 

 

 

 

watch now

 

 

Uploaded By Site DX-TV.com

 

 

Complete name : WWE.Friday.Night.SmackDown.2021.01.08.HDTV.x264-Star.mp4
Format : MPEG-4
Format profile : Base Media
Codec ID : mp42
File size : 883 MiB
Duration : 1 h 27 min
Overall bit rate : 1 416 kb/s

WWE SmackDown 08 Jan

Video
ID : 1
Format : AVC
Format/Info : Advanced Video
Duration : 1 h 27 min
Bit rate : 1 300 kb/s
Width : 720 pixels
Height : 480 pixels
Display aspect ratio : 16:9
Frame rate mode : Constant
Frame rate : 29.970 FPS
Standard : NTSC
Color space : YUV
Chroma subsampling : 4:2:0
Bit depth : 8 bits
Scan type : Progressive
Bits/(Pixel*Frame) : 0.126
Stream size : 808 MiB (91%)
Color range : Limited
Color primaries : BT.709
Transfer characteristics : BT.709
Matrix coefficients : BT.709
Codec configuration box : avc

WWE SmackDown 08 Jan

Audio
ID : 2
Format : AAC LC
Format/Info : Advanced Audio
Codec ID : mp4a-40-2
Duration : 1 h 27 min
Bit rate mode : Constant
Bit rate : 111 kb/s
Channel(s) : 2 channels
Channel layout : L R
Sampling rate : 48.0 kHz
Frame rate : 46.875 FPS (1024 SPF)
Compression mode : Lossy
Stream size : 69.5 MiB (8%)
Title : Stereo
Default : Yes
Alternate group : 1

Complete name : WWE Friday Night Smackdown 2021-01-08 720p AVCHD-SC-SDH.mp4
Format : MPEG-4
Format profile : Base Media
Codec ID : isom
File size : 2.93 GiB
Duration : 1 h 25 min
Overall bit rate mode : Variable
Overall bit rate : 4 909 kb/s
Writing application : Lavf54.63.104

WWE SmackDown  

Video
ID : 1
Format : AVC
Format/Info : Advanced Video
Duration : 1 h 25 min
Bit rate mode : Variable
Bit rate : 4 519 kb/s
Maximum bit rate : 8 400 kb/s
Width : 1 280 pixels
Height : 720 pixels
Display aspect ratio : 16:9
Frame rate mode : Variable
Maximum frame rate : 30.000 FPS
Color space : YUV
Chroma subsampling : 4:2:0
Bit depth : 8 bits
Scan type : Progressive
Bits/(Pixel*Frame) : 0.164
Stream size : 2.69 GiB
Color range : Limited
Color primaries : BT.709
Transfer characteristics : BT.709
Matrix coefficients : BT.709
Codec configuration box : avc

 SmackDown 08 Jan

Audio
ID : 2
Format : AAC LC
Format/Info : Advanced Audio
Codec ID : mp4a-40-2
Duration : 1 h 25 min
Duration_LastFrame : -21 ms
Bit rate mode : Variable
Bit rate : 384 kb/s
Channel(s) : 2 channels
Channel layout : L R
Sampling rate : 48.0 kHz
Frame rate : 46.875 FPS
Compression mode : Lossy
Stream size : 233 MiB
Language : English
Default : Yes
Alternate group : 1

 

 

https://dx-tv.com/

Leave a Reply

Your email address will not be published. Required fields are marked *

This site uses Akismet to reduce spam. Learn how your comment data is processed.