Watch WWE SmackDown 2021 Jan 08 DX-TV

Watch WWE SmackDown 2021 Jan 08 720p DX-TV

Watch WWE SmackDown 2021

 Watch WWE SmackDown 2021

 

Download Links with premium High Speed   

 

 

nitroflare.com

http://shrt10.com/4hXDH43

 

 

rapidgator.net

http://shrt10.com/ZDZZqacx

 

 

uploadgig.com

http://shrt10.com/MrrG7xzpm

 

 

 

Watch WWE SmackDown online

 

Server 1

 

Watch WWE SmackDown 2021

 

 

 

 

Server-2

 

 

watch now

 

 

Uploaded By Site DX-TV.com

 

 

Complete name : WWE.SmackDown.2021.01.08.720p.WEB.h264-HEEL.mp4
Format : MPEG-4
Format profile : Base Media
Codec ID : isom
File size : 6.79 GiB
Duration : 1 h 27 min
Overall bit rate mode : Variable
Overall bit rate : 11.1 Mb/s

WWE SmackDown

Video
ID : 1
Format : AVC
Format profile : [email protected]
Duration : 1 h 27 min
Bit rate mode : Variable
Bit rate : 11.0 Mb/s
Maximum bit rate : 12.0 Mb/s
Width : 1 280 pixels
Height : 720 pixels
Display aspect ratio : 16:9
Frame rate mode : Variable
Original frame rate : 60.000 FPS
Color space : YUV
Chroma subsampling : 4:2:0
Bit depth : 8 bits
Scan type : Progressive
Bits/(Pixel*Frame) : 0.199
Stream size : 6.69 GiB (98%)
Color range : Limited
Color primaries : BT.709
Transfer characteristics : BT.709
Matrix coefficients : BT.709
Codec configuration box : avc

Watch WWE SmackDown

Audio
ID : 2
Format : AAC LC
Format/Info : Advanced Audio
Codec ID : mp4a-40-2
Duration : 1 h 27 min
Source duration : 1 h 27 min
Bit rate mode : Variable
Bit rate : 157 kb/s
Maximum bit rate : 160 kb/s / 160 kb/s
Channel(s) : 2 channels
Channel layout : L R
Sampling rate : 48.0 kHz
Frame rate : 46.875 FPS (1024 SPF)
Compression mode : Lossy
Stream size : 98.3 MiB (1%)
Source stream size : 98.3 MiB (1%)
Default : Yes
Alternate group : 1
mdhd_Duration : 5237517

Watch WWE SmackDown

Audio
ID : 2
Format : AAC LC
Format/Info : Advanced Audio
Codec ID : mp4a-40-2
Duration : 1 h 27 min
Source duration : 1 h 27 min
Bit rate mode : Variable
Bit rate : 157 kb/s
Maximum bit rate : 160 kb/s / 160 kb/s
Channel(s) : 2 channels
Channel layout : L R
Sampling rate : 48.0 kHz
Frame rate : 46.875 FPS (1024 SPF)
Compression mode : Lossy
Stream size : 98.3 MiB (1%)
Source stream size : 98.3 MiB (1%)
Default : Yes
Alternate group : 1 

Watch WWE SmackDown

https://dx-tv.com/

Leave a Reply

Your email address will not be published. Required fields are marked *

This site uses Akismet to reduce spam. Learn how your comment data is processed.