WWE Raw Talk 2021 04 05 Online Replay 1080p

WWE Raw Talk 2021 04 05 Online Replay 1080p DX-TV

WWE Raw Talk 2021

 WWE Raw Talk 2021

 

 

 

Download Links with High Speed


 

Dopapk

 

 

Show Links

 

http://shrt10.com/ZSoso

 

[collapse]

 

 

Nitroflare

 

 

Show Links

 

http://shrt10.com/WfwLlslI

 

[collapse]

 

 

Rapidgator

 

 

Show Links

 

http://shrt10.com/nVyiARJJ7

 

[collapse]

 

 

Uploaded

 

 

Show Links

 

http://shrt10.com/GFsqi

 

[collapse]

 

 

Watch online

 

Server 1

 

 

 

 

WWE Raw Talk

 

 

 

 

Server-2

 

 

 

 

watch now

 

 

 

|Server-3

 

 

 

 

watch now

 

 

Uploaded By Site DX-TV.com

 

 

Show Info This Show

 

 

Complete name : WWE.Raw.Talk.2021.04.05.1080p.WEB.h264-HEEL.mp4
Format : MPEG-4
Format profile : Base Media
Codec ID : isom
File size : 1.32 GiB
Duration : 32 min 42 s
Overall bit rate mode : Variable
Overall bit rate : 5 786 kb/s

WWE Raw Talk

Video
ID : 1
Format : AVC
Format/Info : Advanced Video
Duration : 32 min 42 s
Bit rate : 5 650 kb/s
Width : 1 920 pixels
Height : 1 080 pixels
Display aspect ratio : 16:9
Frame rate mode : Variable
Frame rate : 30.000 FPS
Minimum frame rate : 29.412 FPS
Maximum frame rate : 30.303 FPS
Color space : YUV
Chroma subsampling : 4:2:0
Bit depth : 8 bits
Scan type : Progressive
Bits/(Pixel*Frame) : 0.091
Stream size : 1.29 GiB (98%)
Codec configuration box : avcC

WWE Raw Talk

Audio
ID : 2
Format : AAC LC
Format/Info : Advanced Audio
Codec ID : mp4a-40-2
Duration : 32 min 41 s
Bit rate mode : Variable
Bit rate : 125 kb/s
Maximum bit rate : 140 kb/s
Channel(s) : 2 channels
Channel layout : L R
Sampling rate : 48.0 kHz
Frame rate : 46.875 FPS (1024 SPF)
Compression mode : Lossy
Stream size : 29.3 MiB (2%)
Default : Yes
Alternate group : 1

Text #1
ID : 1-CC1
Format : EIA-608
Muxing mode : SCTE 128 / DTVCC Transport
Muxing mode, more info : Muxed in Video #1
Duration : 32 min 42 s
Bit rate mode : Constant
Stream size : 0.00 Byte (0%)
CaptionServiceName : CC1

WWE Raw Talk

Text #2
ID : 1-CC3
Format : EIA-608
Muxing mode : SCTE 128 / DTVCC Transport
Muxing mode, more info : Muxed in Video #1
Duration : 32 min 42 s
Bit rate mode : Constant
Stream size : 0.00 Byte (0%)
CaptionServiceName : CC3

Text #3
ID : 1-1
Format : EIA-708
Muxing mode : SCTE 128 / DTVCC Transport
Muxing mode, more info : Muxed in Video #1
Duration : 32 min 42 s
Bit rate mode : Constant
Stream size : 0.00 Byte (0%)

Text #4
ID : 1-3
Format : EIA-708
Muxing mode : SCTE 128 / DTVCC Transport
Muxing mode, more info : Muxed in Video #1
Duration : 32 min 42 s
Bit rate mode : Constant
Stream size : 0.00 Byte (0%)

WWE Raw Talk

Text #5
ID : 1-4
Format : EIA-708
Muxing mode : SCTE 128 / DTVCC Transport
Muxing mode, more info : Muxed in Video #1
Duration : 32 min 42 s
Bit rate mode : Constant
Stream size : 0.00 Byte (0%)

Text #6
ID : 1-5
Format : EIA-708
Muxing mode : SCTE 128 / DTVCC Transport
Muxing mode, more info : Muxed in Video #1
Duration : 32 min 42 s
Bit rate mode : Constant
Stream size : 0.00 Byte (0%)

Text #7
ID : 1-6
Format : EIA-708
Muxing mode : SCTE 128 / DTVCC Transport
Muxing mode, more info : Muxed in Video #1
Duration : 32 min 42 s
Bit rate mode : Constant
Stream size : 0.00 Byte (0%)

 

 

[collapse]

 

 

https://dx-tv.com/