Watch WWE Raw 05 April 2021 Full Show 1080p

Watch WWE Raw 05 April 2021 Full Show 1080p DX-TV

Watch WWE Raw 05 April 2021

 Watch WWE Raw 05 April 2021

 

 

 

Download Links with High Speed


Dopapk

 

 

Show Links

 

http://shrt10.com/uOTWfyja

 

[collapse]

 

 

Nitroflare

 

 

Show Links

 

http://shrt10.com/YN5gnZ

 

[collapse]

 

 

Rapidgator

 

 

Show Links

 

http://shrt10.com/D2FtuI

 

[collapse]

 

 

Uploaded

 

 

Show Links

 

 

[collapse]

 

 

Watch online

 

Server 1

 

 

 

 

watch now

 

 

 

 

Server-2

 

 

 

 

Watch WWE Raw

 

 

 

|Server-3

 

 

 

 

watch now

 

 

Uploaded By Site DX-TV.com

 

 

Show Info This Show

 

 

Complete name : WWE.RAW.2021.04.05.1080p.WEB.h264-HEEL.mkv
Format : Matroska
Format version : Version 4
File size : 6.24 GiB
Duration : 2 h 12 min
Overall bit rate mode : Variable
Overall bit rate : 6 753 kb/s

Watch WWE Raw

Video
ID : 1
Format : AVC
Duration : 2 h 12 min
Bit rate mode : Variable
Bit rate : 6 234 kb/s
Nominal bit rate : 5 284 kb/s
Maximum bit rate : 8 000 kb/s
Width : 1 920 pixels
Height : 1 080 pixels
Display aspect ratio : 16:9
Frame rate mode : Constant
Frame rate : 59.940 (60000/1001) FPS
Standard : Component
Color space : YUV
Chroma subsampling : 4:2:0
Bit depth : 8 bits
Scan type : Progressive
Bits/(Pixel*Frame) : 0.050
Stream size : 5.76 GiB (92%)
Forced : No
Color range : Limited
Color primaries : BT.709
Transfer characteristics : BT.709
Matrix coefficients : BT.709

Watch WWE Raw

Audio
ID : 2
Format : AC-3
Format/Info : Audio Coding 3
Commercial name : Dolby Digital
Codec ID : A_AC3
Duration : 2 h 12 min
Bit rate mode : Constant
Bit rate : 384 kb/s
Channel(s) : 2 channels
Channel layout : L R
Sampling rate : 48.0 kHz
Frame rate : 31.250 FPS (1536 SPF)
Bit depth : 32 bits
Compression mode : Lossy
Stream size : 363 MiB (6%)
Language : English
Service kind : Complete Main
Default : Yes
Forced : No

Watch WWE Raw

Audio
ID : 2
Format : AC-3
Format/Info : Audio Coding 3
Commercial name : Dolby Digital
Codec ID : A_AC3
Duration : 2 h 12 min
Bit rate mode : Constant
Bit rate : 384 kb/s
Channel(s) : 2 channels
Channel layout : L R
Sampling rate : 48.0 kHz
Frame rate : 31.250 FPS (1536 SPF)
Bit depth : 32 bits
Compression mode : Lossy
Stream size : 363 MiB (6%)
Language : English
Service kind : Complete Main
Default : Yes
Forced : No

 

Audio
ID : 2
Format : AC-3
Format/Info : Audio Coding 3
Commercial name : Dolby Digital
Codec ID : A_AC3
Duration : 2 h 12 min
Bit rate mode : Constant
Bit rate : 384 kb/s
Channel(s) : 2 channels
Channel layout : L R
Sampling rate : 48.0 kHz
Frame rate : 31.250 FPS (1536 SPF)
Bit depth : 32 bits
Compression mode : Lossy
Stream size : 363 MiB (6%)
Language : English
Service kind : Complete Main
Default : Yes
Forced : No

Watch WWE Raw

Audio
ID : 2
Format : AC-3
Format/Info : Audio Coding 3
Commercial name : Dolby Digital
Codec ID : A_AC3
Duration : 2 h 12 min
Bit rate mode : Constant
Bit rate : 384 kb/s
Channel(s) : 2 channels
Channel layout : L R
Sampling rate : 48.0 kHz
Frame rate : 31.250 FPS (1536 SPF)
Bit depth : 32 bits
Compression mode : Lossy
Stream size : 363 MiB (6%)
Language : English
Service kind : Complete Main
Default : Yes
Forced : No

 

 

[collapse]

 

 

https://dx-tv.com/

You May Also Like