WWE RAW Online Free Replay 1080p 2021 08 16

WWE RAW Online Free Replay 1080p 2021 08 16 DX-TV

WWE RAW Online

 WWE RAW Online

 

 

 

Download Links with premium High Speed


Dopapk

 

 

 

 

Nitroflare

 

 

Show Links

 

http://shrt10.com/9P7NCr
http://shrt10.com/29ocM

 

[collapse]

 

 

Rapidgator

 

 

Show Links

 

http://shrt10.com/HEWY4rKAY
http://shrt10.com/9TnY5EI

 

[collapse]

 

 

Uploaded

 

 

Show Links

 

http://shrt10.com/0AkXO1sZ

 

[collapse]

 

 

Watch online

 

Server 1

 

 

 

 

WWE RAW Online

 

 

 

 

Server-2

 

 

 

 

watch now

 

 

 

|Server-3

 

 

 

 

watch now

 

 

Uploaded By Site DX-TV.com

 

 

Show Info This Show

 

WWE RAW Online

Complete name : WWE.RAW.2021.08.16.1080p.WEB.h264-HEEL.mkv
Format : Matroska
Format version : Version 4
File size : 5.96 GiB
Duration : 2 h 12 min
Overall bit rate mode : Variable
Overall bit rate : 6 421 kb/s

Video
ID : 1
Format : AVC
Format/Info : Advanced Video
Duration : 2 h 12 min
Bit rate mode : Variable
Bit rate : 5 909 kb/s
Nominal bit rate : 500 kb/s
Maximum bit rate : 8 000 kb/s
Width : 1 920 pixels
Height : 1 080 pixels
Display aspect ratio : 16:9
Frame rate mode : Constant
Frame rate : 59.940 (60000/1001) FPS
Standard : Component
Color space : YUV
Chroma subsampling : 4:2:0
Bit depth : 8 bits
Scan type : Progressive
Bits/(Pixel*Frame) : 0.048
Stream size : 5.48 GiB (92%)
Forced : No
Color range : Limited
Color primaries : BT.709
Transfer characteristics : BT.709
Matrix coefficients : BT.709

WWE RAW Online

Audio
ID : 2
Format : AC-3
Format/Info : Audio Coding 3
Commercial name : Dolby Digital
Codec ID : A_AC3
Duration : 2 h 12 min
Bit rate mode : Constant
Bit rate : 384 kb/s
Channel(s) : 2 channels
Channel layout : L R
Sampling rate : 48.0 kHz
Frame rate : 31.250 FPS (1536 SPF)
Bit depth : 32 bits
Compression mode : Lossy
Stream size : 365 MiB (6%)
Language : English
Service kind : Complete Main
Default : Yes
Forced : No

Complete name : WWE.RAW.16th.August.2021.720p.WEBRip.h264-TJ.mp4
Format : MPEG-4
Format profile : Base Media
Codec ID : isom
File size : 2.73 GiB
Duration : 2 h 1 min
Overall bit rate mode : Variable
Overall bit rate : 3 223 kb/s
Law rating : TV-PG (V)

WWE RAW Online

Video
ID : 2
Format : AVC
Format/Info : Advanced Video
Duration : 2 h 1 min
Bit rate mode : Variable
Bit rate : 3 118 kb/s
Maximum bit rate : 3 500 kb/s
Width : 1 280 pixels
Height : 720 pixels
Display aspect ratio : 16:9
Frame rate : 59.940 (60000/1001) FPS
Standard : Component
Color space : YUV
Chroma subsampling : 4:2:0
Bit depth : 8 bits
Scan type : Progressive
Bits/(Pixel*Frame) : 0.056
Stream size : 2.64 GiB (97%)
Color range : Limited
Color primaries : BT.709
Transfer characteristics : BT.709
Matrix coefficients : BT.709
Codec configuration box : avc

WWE RAW Online

Audio
ID : 1
Format : AAC LC SBR
Commercial name : HE-AAC
Format settings : Implicit
Codec ID : mp4a-40-2
Duration : 2 h 1 min
Bit rate mode : Constant
Bit rate : 96.0 kb/s
Channel(s) : 2 channels
Channel layout : L R
Sampling rate : 48.0 kHz
Frame rate : 23.438 FPS (2048 SPF)
Compression mode : Lossy
Stream size : 82.2 MiB (3%)
Default : Yes
Alternate group : 1

WWE RAW Online

Text #1
ID : 2-CC1
Format : EIA-608
Muxing mode : SCTE 128 / DTVCC Transport
Muxing mode, more info : Muxed in Video #1
Duration : 2 h 1 min
Bit rate mode : Constant
Stream size : 0.00 Byte (0%)
CaptionServiceName : CC1

Text #2
ID : 2-1
Format : EIA-708
Muxing mode : SCTE 128 / DTVCC Transport
Muxing mode, more info : Muxed in Video #1
Duration : 2 h 1 min
Bit rate mode : Constant
Stream size : 0.00 Byte (0%)

WWE RAW Online

Complete name : WWE.RAW.2021.08.16.1080p.WEB.h264-HEEL.mkv
Format : Matroska
Format version : Version 4
File size : 5.96 GiB
Duration : 2 h 12 min
Overall bit rate mode : Variable
Overall bit rate : 6 421 kb/s

Video
ID : 1
Format : AVC
Format/Info : Advanced Video
Duration : 2 h 12 min
Bit rate mode : Variable
Bit rate : 5 909 kb/s
Nominal bit rate : 500 kb/s
Maximum bit rate : 8 000 kb/s
Width : 1 920 pixels
Height : 1 080 pixels
Display aspect ratio : 16:9
Frame rate mode : Constant
Frame rate : 59.940 (60000/1001) FPS
Standard : Component
Color space : YUV
Chroma subsampling : 4:2:0
Bit depth : 8 bits
Scan type : Progressive
Bits/(Pixel*Frame) : 0.048
Stream size : 5.48 GiB (92%)
Forced : No
Color range : Limited
Color primaries : BT.709
Transfer characteristics : BT.709
Matrix coefficients : BT.709

WWE RAW Online

Audio
ID : 2
Format : AC-3
Format/Info : Audio Coding 3
Commercial name : Dolby Digital
Codec ID : A_AC3
Duration : 2 h 12 min
Bit rate mode : Constant
Bit rate : 384 kb/s
Channel(s) : 2 channels
Channel layout : L R
Sampling rate : 48.0 kHz
Frame rate : 31.250 FPS (1536 SPF)
Bit depth : 32 bits
Compression mode : Lossy
Stream size : 365 MiB (6%)
Language : English
Service kind : Complete Main
Default : Yes
Forced : No

Complete name : WWE.RAW.16th.August.2021.720p.WEBRip.h264-TJ.mp4
Format : MPEG-4
Format profile : Base Media
Codec ID : isom
File size : 2.73 GiB
Duration : 2 h 1 min
Overall bit rate mode : Variable
Overall bit rate : 3 223 kb/s
Law rating : TV-PG (V)

WWE RAW Online

Video
ID : 2
Format : AVC
Format/Info : Advanced Video
Duration : 2 h 1 min
Bit rate mode : Variable
Bit rate : 3 118 kb/s
Maximum bit rate : 3 500 kb/s
Width : 1 280 pixels
Height : 720 pixels
Display aspect ratio : 16:9
Frame rate : 59.940 (60000/1001) FPS
Standard : Component
Color space : YUV
Chroma subsampling : 4:2:0
Bit depth : 8 bits
Scan type : Progressive
Bits/(Pixel*Frame) : 0.056
Stream size : 2.64 GiB (97%)
Color range : Limited
Color primaries : BT.709
Transfer characteristics : BT.709
Matrix coefficients : BT.709
Codec configuration box : avc

WWE RAW Online

Audio
ID : 1
Format : AAC LC SBR
Commercial name : HE-AAC
Format settings : Implicit
Codec ID : mp4a-40-2
Duration : 2 h 1 min
Bit rate mode : Constant
Bit rate : 96.0 kb/s
Channel(s) : 2 channels
Channel layout : L R
Sampling rate : 48.0 kHz
Frame rate : 23.438 FPS (2048 SPF)
Compression mode : Lossy
Stream size : 82.2 MiB (3%)
Default : Yes
Alternate group : 1

WWE RAW Online

Text #1
ID : 2-CC1
Format : EIA-608
Muxing mode : SCTE 128 / DTVCC Transport
Muxing mode, more info : Muxed in Video #1
Duration : 2 h 1 min
Bit rate mode : Constant
Stream size : 0.00 Byte (0%)
CaptionServiceName : CC1

Text #2
ID : 2-1
Format : EIA-708
Muxing mode : SCTE 128 / DTVCC Transport
Muxing mode, more info : Muxed in Video #1
Duration : 2 h 1 min
Bit rate mode : Constant
Stream size : 0.00 Byte (0%)

WWE RAW Online

Complete name : WWE.RAW.2021.08.16.1080p.WEB.h264-HEEL.mkv
Format : Matroska
Format version : Version 4
File size : 5.96 GiB
Duration : 2 h 12 min
Overall bit rate mode : Variable
Overall bit rate : 6 421 kb/s

Video
ID : 1
Format : AVC
Format/Info : Advanced Video
Duration : 2 h 12 min
Bit rate mode : Variable
Bit rate : 5 909 kb/s
Nominal bit rate : 500 kb/s
Maximum bit rate : 8 000 kb/s
Width : 1 920 pixels
Height : 1 080 pixels
Display aspect ratio : 16:9
Frame rate mode : Constant
Frame rate : 59.940 (60000/1001) FPS
Standard : Component
Color space : YUV
Chroma subsampling : 4:2:0
Bit depth : 8 bits
Scan type : Progressive
Bits/(Pixel*Frame) : 0.048
Stream size : 5.48 GiB (92%)
Forced : No
Color range : Limited
Color primaries : BT.709
Transfer characteristics : BT.709
Matrix coefficients : BT.709

WWE RAW Online

Audio
ID : 2
Format : AC-3
Format/Info : Audio Coding 3
Commercial name : Dolby Digital
Codec ID : A_AC3
Duration : 2 h 12 min
Bit rate mode : Constant
Bit rate : 384 kb/s
Channel(s) : 2 channels
Channel layout : L R
Sampling rate : 48.0 kHz
Frame rate : 31.250 FPS (1536 SPF)
Bit depth : 32 bits
Compression mode : Lossy
Stream size : 365 MiB (6%)
Language : English
Service kind : Complete Main
Default : Yes
Forced : No

Complete name : WWE.RAW.16th.August.2021.720p.WEBRip.h264-TJ.mp4
Format : MPEG-4
Format profile : Base Media
Codec ID : isom
File size : 2.73 GiB
Duration : 2 h 1 min
Overall bit rate mode : Variable
Overall bit rate : 3 223 kb/s
Law rating : TV-PG (V)

WWE RAW Online

Video
ID : 2
Format : AVC
Format/Info : Advanced Video
Duration : 2 h 1 min
Bit rate mode : Variable
Bit rate : 3 118 kb/s
Maximum bit rate : 3 500 kb/s
Width : 1 280 pixels
Height : 720 pixels
Display aspect ratio : 16:9
Frame rate : 59.940 (60000/1001) FPS
Standard : Component
Color space : YUV
Chroma subsampling : 4:2:0
Bit depth : 8 bits
Scan type : Progressive
Bits/(Pixel*Frame) : 0.056
Stream size : 2.64 GiB (97%)
Color range : Limited
Color primaries : BT.709
Transfer characteristics : BT.709
Matrix coefficients : BT.709
Codec configuration box : avc

WWE RAW Online

Audio
ID : 1
Format : AAC LC SBR
Commercial name : HE-AAC
Format settings : Implicit
Codec ID : mp4a-40-2
Duration : 2 h 1 min
Bit rate mode : Constant
Bit rate : 96.0 kb/s
Channel(s) : 2 channels
Channel layout : L R
Sampling rate : 48.0 kHz
Frame rate : 23.438 FPS (2048 SPF)
Compression mode : Lossy
Stream size : 82.2 MiB (3%)
Default : Yes
Alternate group : 1

WWE RAW Online

Text #1
ID : 2-CC1
Format : EIA-608
Muxing mode : SCTE 128 / DTVCC Transport
Muxing mode, more info : Muxed in Video #1
Duration : 2 h 1 min
Bit rate mode : Constant
Stream size : 0.00 Byte (0%)
CaptionServiceName : CC1

Text #2
ID : 2-1
Format : EIA-708
Muxing mode : SCTE 128 / DTVCC Transport
Muxing mode, more info : Muxed in Video #1
Duration : 2 h 1 min
Bit rate mode : Constant
Stream size : 0.00 Byte (0%)

WWE RAW Online

Complete name : WWE.RAW.2021.08.16.1080p.WEB.h264-HEEL.mkv
Format : Matroska
Format version : Version 4
File size : 5.96 GiB
Duration : 2 h 12 min
Overall bit rate mode : Variable
Overall bit rate : 6 421 kb/s

Video
ID : 1
Format : AVC
Format/Info : Advanced Video
Duration : 2 h 12 min
Bit rate mode : Variable
Bit rate : 5 909 kb/s
Nominal bit rate : 500 kb/s
Maximum bit rate : 8 000 kb/s
Width : 1 920 pixels
Height : 1 080 pixels
Display aspect ratio : 16:9
Frame rate mode : Constant
Frame rate : 59.940 (60000/1001) FPS
Standard : Component
Color space : YUV
Chroma subsampling : 4:2:0
Bit depth : 8 bits
Scan type : Progressive
Bits/(Pixel*Frame) : 0.048
Stream size : 5.48 GiB (92%)
Forced : No
Color range : Limited
Color primaries : BT.709
Transfer characteristics : BT.709
Matrix coefficients : BT.709

WWE RAW Online

Audio
ID : 2
Format : AC-3
Format/Info : Audio Coding 3
Commercial name : Dolby Digital
Codec ID : A_AC3
Duration : 2 h 12 min
Bit rate mode : Constant
Bit rate : 384 kb/s
Channel(s) : 2 channels
Channel layout : L R
Sampling rate : 48.0 kHz
Frame rate : 31.250 FPS (1536 SPF)
Bit depth : 32 bits
Compression mode : Lossy
Stream size : 365 MiB (6%)
Language : English
Service kind : Complete Main
Default : Yes
Forced : No

Complete name : WWE.RAW.16th.August.2021.720p.WEBRip.h264-TJ.mp4
Format : MPEG-4
Format profile : Base Media
Codec ID : isom
File size : 2.73 GiB
Duration : 2 h 1 min
Overall bit rate mode : Variable
Overall bit rate : 3 223 kb/s
Law rating : TV-PG (V)

WWE RAW Online

Video
ID : 2
Format : AVC
Format/Info : Advanced Video
Duration : 2 h 1 min
Bit rate mode : Variable
Bit rate : 3 118 kb/s
Maximum bit rate : 3 500 kb/s
Width : 1 280 pixels
Height : 720 pixels
Display aspect ratio : 16:9
Frame rate : 59.940 (60000/1001) FPS
Standard : Component
Color space : YUV
Chroma subsampling : 4:2:0
Bit depth : 8 bits
Scan type : Progressive
Bits/(Pixel*Frame) : 0.056
Stream size : 2.64 GiB (97%)
Color range : Limited
Color primaries : BT.709
Transfer characteristics : BT.709
Matrix coefficients : BT.709
Codec configuration box : avc

WWE RAW Online

Audio
ID : 1
Format : AAC LC SBR
Commercial name : HE-AAC
Format settings : Implicit
Codec ID : mp4a-40-2
Duration : 2 h 1 min
Bit rate mode : Constant
Bit rate : 96.0 kb/s
Channel(s) : 2 channels
Channel layout : L R
Sampling rate : 48.0 kHz
Frame rate : 23.438 FPS (2048 SPF)
Compression mode : Lossy
Stream size : 82.2 MiB (3%)
Default : Yes
Alternate group : 1

WWE RAW Online

Text #1
ID : 2-CC1
Format : EIA-608
Muxing mode : SCTE 128 / DTVCC Transport
Muxing mode, more info : Muxed in Video #1
Duration : 2 h 1 min
Bit rate mode : Constant
Stream size : 0.00 Byte (0%)
CaptionServiceName : CC1

Text #2
ID : 2-1
Format : EIA-708
Muxing mode : SCTE 128 / DTVCC Transport
Muxing mode, more info : Muxed in Video #1
Duration : 2 h 1 min
Bit rate mode : Constant
Stream size : 0.00 Byte (0%)

WWE RAW Online

Complete name : WWE.RAW.2021.08.16.1080p.WEB.h264-HEEL.mkv
Format : Matroska
Format version : Version 4
File size : 5.96 GiB
Duration : 2 h 12 min
Overall bit rate mode : Variable
Overall bit rate : 6 421 kb/s

Video
ID : 1
Format : AVC
Format/Info : Advanced Video
Duration : 2 h 12 min
Bit rate mode : Variable
Bit rate : 5 909 kb/s
Nominal bit rate : 500 kb/s
Maximum bit rate : 8 000 kb/s
Width : 1 920 pixels
Height : 1 080 pixels
Display aspect ratio : 16:9
Frame rate mode : Constant
Frame rate : 59.940 (60000/1001) FPS
Standard : Component
Color space : YUV
Chroma subsampling : 4:2:0
Bit depth : 8 bits
Scan type : Progressive
Bits/(Pixel*Frame) : 0.048
Stream size : 5.48 GiB (92%)
Forced : No
Color range : Limited
Color primaries : BT.709
Transfer characteristics : BT.709
Matrix coefficients : BT.709

WWE RAW Online

Audio
ID : 2
Format : AC-3
Format/Info : Audio Coding 3
Commercial name : Dolby Digital
Codec ID : A_AC3
Duration : 2 h 12 min
Bit rate mode : Constant
Bit rate : 384 kb/s
Channel(s) : 2 channels
Channel layout : L R
Sampling rate : 48.0 kHz
Frame rate : 31.250 FPS (1536 SPF)
Bit depth : 32 bits
Compression mode : Lossy
Stream size : 365 MiB (6%)
Language : English
Service kind : Complete Main
Default : Yes
Forced : No

Complete name : WWE.RAW.16th.August.2021.720p.WEBRip.h264-TJ.mp4
Format : MPEG-4
Format profile : Base Media
Codec ID : isom
File size : 2.73 GiB
Duration : 2 h 1 min
Overall bit rate mode : Variable
Overall bit rate : 3 223 kb/s
Law rating : TV-PG (V)

WWE RAW Online

Video
ID : 2
Format : AVC
Format/Info : Advanced Video
Duration : 2 h 1 min
Bit rate mode : Variable
Bit rate : 3 118 kb/s
Maximum bit rate : 3 500 kb/s
Width : 1 280 pixels
Height : 720 pixels
Display aspect ratio : 16:9
Frame rate : 59.940 (60000/1001) FPS
Standard : Component
Color space : YUV
Chroma subsampling : 4:2:0
Bit depth : 8 bits
Scan type : Progressive
Bits/(Pixel*Frame) : 0.056
Stream size : 2.64 GiB (97%)
Color range : Limited
Color primaries : BT.709
Transfer characteristics : BT.709
Matrix coefficients : BT.709
Codec configuration box : avc

WWE RAW Online

Audio
ID : 1
Format : AAC LC SBR
Commercial name : HE-AAC
Format settings : Implicit
Codec ID : mp4a-40-2
Duration : 2 h 1 min
Bit rate mode : Constant
Bit rate : 96.0 kb/s
Channel(s) : 2 channels
Channel layout : L R
Sampling rate : 48.0 kHz
Frame rate : 23.438 FPS (2048 SPF)
Compression mode : Lossy
Stream size : 82.2 MiB (3%)
Default : Yes
Alternate group : 1

WWE RAW Online

Text #1
ID : 2-CC1
Format : EIA-608
Muxing mode : SCTE 128 / DTVCC Transport
Muxing mode, more info : Muxed in Video #1
Duration : 2 h 1 min
Bit rate mode : Constant
Stream size : 0.00 Byte (0%)
CaptionServiceName : CC1

Text #2
ID : 2-1
Format : EIA-708
Muxing mode : SCTE 128 / DTVCC Transport
Muxing mode, more info : Muxed in Video #1
Duration : 2 h 1 min
Bit rate mode : Constant
Stream size : 0.00 Byte (0%)

WWE RAW Online

Complete name : WWE.RAW.2021.08.16.1080p.WEB.h264-HEEL.mkv
Format : Matroska
Format version : Version 4
File size : 5.96 GiB
Duration : 2 h 12 min
Overall bit rate mode : Variable
Overall bit rate : 6 421 kb/s

Video
ID : 1
Format : AVC
Format/Info : Advanced Video
Duration : 2 h 12 min
Bit rate mode : Variable
Bit rate : 5 909 kb/s
Nominal bit rate : 500 kb/s
Maximum bit rate : 8 000 kb/s
Width : 1 920 pixels
Height : 1 080 pixels
Display aspect ratio : 16:9
Frame rate mode : Constant
Frame rate : 59.940 (60000/1001) FPS
Standard : Component
Color space : YUV
Chroma subsampling : 4:2:0
Bit depth : 8 bits
Scan type : Progressive
Bits/(Pixel*Frame) : 0.048
Stream size : 5.48 GiB (92%)
Forced : No
Color range : Limited
Color primaries : BT.709
Transfer characteristics : BT.709
Matrix coefficients : BT.709

WWE RAW Online

Audio
ID : 2
Format : AC-3
Format/Info : Audio Coding 3
Commercial name : Dolby Digital
Codec ID : A_AC3
Duration : 2 h 12 min
Bit rate mode : Constant
Bit rate : 384 kb/s
Channel(s) : 2 channels
Channel layout : L R
Sampling rate : 48.0 kHz
Frame rate : 31.250 FPS (1536 SPF)
Bit depth : 32 bits
Compression mode : Lossy
Stream size : 365 MiB (6%)
Language : English
Service kind : Complete Main
Default : Yes
Forced : No

Complete name : WWE.RAW.16th.August.2021.720p.WEBRip.h264-TJ.mp4
Format : MPEG-4
Format profile : Base Media
Codec ID : isom
File size : 2.73 GiB
Duration : 2 h 1 min
Overall bit rate mode : Variable
Overall bit rate : 3 223 kb/s
Law rating : TV-PG (V)

WWE RAW Online

Video
ID : 2
Format : AVC
Format/Info : Advanced Video
Duration : 2 h 1 min
Bit rate mode : Variable
Bit rate : 3 118 kb/s
Maximum bit rate : 3 500 kb/s
Width : 1 280 pixels
Height : 720 pixels
Display aspect ratio : 16:9
Frame rate : 59.940 (60000/1001) FPS
Standard : Component
Color space : YUV
Chroma subsampling : 4:2:0
Bit depth : 8 bits
Scan type : Progressive
Bits/(Pixel*Frame) : 0.056
Stream size : 2.64 GiB (97%)
Color range : Limited
Color primaries : BT.709
Transfer characteristics : BT.709
Matrix coefficients : BT.709
Codec configuration box : avc

WWE RAW Online

Audio
ID : 1
Format : AAC LC SBR
Commercial name : HE-AAC
Format settings : Implicit
Codec ID : mp4a-40-2
Duration : 2 h 1 min
Bit rate mode : Constant
Bit rate : 96.0 kb/s
Channel(s) : 2 channels
Channel layout : L R
Sampling rate : 48.0 kHz
Frame rate : 23.438 FPS (2048 SPF)
Compression mode : Lossy
Stream size : 82.2 MiB (3%)
Default : Yes
Alternate group : 1

WWE RAW Online

Text #1
ID : 2-CC1
Format : EIA-608
Muxing mode : SCTE 128 / DTVCC Transport
Muxing mode, more info : Muxed in Video #1
Duration : 2 h 1 min
Bit rate mode : Constant
Stream size : 0.00 Byte (0%)
CaptionServiceName : CC1

Text #2
ID : 2-1
Format : EIA-708
Muxing mode : SCTE 128 / DTVCC Transport
Muxing mode, more info : Muxed in Video #1
Duration : 2 h 1 min
Bit rate mode : Constant
Stream size : 0.00 Byte (0%)

WWE RAW Online

Complete name : WWE.RAW.2021.08.16.1080p.WEB.h264-HEEL.mkv
Format : Matroska
Format version : Version 4
File size : 5.96 GiB
Duration : 2 h 12 min
Overall bit rate mode : Variable
Overall bit rate : 6 421 kb/s

Video
ID : 1
Format : AVC
Format/Info : Advanced Video
Duration : 2 h 12 min
Bit rate mode : Variable
Bit rate : 5 909 kb/s
Nominal bit rate : 500 kb/s
Maximum bit rate : 8 000 kb/s
Width : 1 920 pixels
Height : 1 080 pixels
Display aspect ratio : 16:9
Frame rate mode : Constant
Frame rate : 59.940 (60000/1001) FPS
Standard : Component
Color space : YUV
Chroma subsampling : 4:2:0
Bit depth : 8 bits
Scan type : Progressive
Bits/(Pixel*Frame) : 0.048
Stream size : 5.48 GiB (92%)
Forced : No
Color range : Limited
Color primaries : BT.709
Transfer characteristics : BT.709
Matrix coefficients : BT.709

WWE RAW Online

Audio
ID : 2
Format : AC-3
Format/Info : Audio Coding 3
Commercial name : Dolby Digital
Codec ID : A_AC3
Duration : 2 h 12 min
Bit rate mode : Constant
Bit rate : 384 kb/s
Channel(s) : 2 channels
Channel layout : L R
Sampling rate : 48.0 kHz
Frame rate : 31.250 FPS (1536 SPF)
Bit depth : 32 bits
Compression mode : Lossy
Stream size : 365 MiB (6%)
Language : English
Service kind : Complete Main
Default : Yes
Forced : No

Complete name : WWE.RAW.16th.August.2021.720p.WEBRip.h264-TJ.mp4
Format : MPEG-4
Format profile : Base Media
Codec ID : isom
File size : 2.73 GiB
Duration : 2 h 1 min
Overall bit rate mode : Variable
Overall bit rate : 3 223 kb/s
Law rating : TV-PG (V)

WWE RAW Online

Video
ID : 2
Format : AVC
Format/Info : Advanced Video
Duration : 2 h 1 min
Bit rate mode : Variable
Bit rate : 3 118 kb/s
Maximum bit rate : 3 500 kb/s
Width : 1 280 pixels
Height : 720 pixels
Display aspect ratio : 16:9
Frame rate : 59.940 (60000/1001) FPS
Standard : Component
Color space : YUV
Chroma subsampling : 4:2:0
Bit depth : 8 bits
Scan type : Progressive
Bits/(Pixel*Frame) : 0.056
Stream size : 2.64 GiB (97%)
Color range : Limited
Color primaries : BT.709
Transfer characteristics : BT.709
Matrix coefficients : BT.709
Codec configuration box : avc

WWE RAW Online

Audio
ID : 1
Format : AAC LC SBR
Commercial name : HE-AAC
Format settings : Implicit
Codec ID : mp4a-40-2
Duration : 2 h 1 min
Bit rate mode : Constant
Bit rate : 96.0 kb/s
Channel(s) : 2 channels
Channel layout : L R
Sampling rate : 48.0 kHz
Frame rate : 23.438 FPS (2048 SPF)
Compression mode : Lossy
Stream size : 82.2 MiB (3%)
Default : Yes
Alternate group : 1

WWE RAW Online

Text #1
ID : 2-CC1
Format : EIA-608
Muxing mode : SCTE 128 / DTVCC Transport
Muxing mode, more info : Muxed in Video #1
Duration : 2 h 1 min
Bit rate mode : Constant
Stream size : 0.00 Byte (0%)
CaptionServiceName : CC1

Text #2
ID : 2-1
Format : EIA-708
Muxing mode : SCTE 128 / DTVCC Transport
Muxing mode, more info : Muxed in Video #1
Duration : 2 h 1 min
Bit rate mode : Constant
Stream size : 0.00 Byte (0%)

WWE RAW Online

Complete name : WWE.RAW.2021.08.16.1080p.WEB.h264-HEEL.mkv
Format : Matroska
Format version : Version 4
File size : 5.96 GiB
Duration : 2 h 12 min
Overall bit rate mode : Variable
Overall bit rate : 6 421 kb/s

Video
ID : 1
Format : AVC
Format/Info : Advanced Video
Duration : 2 h 12 min
Bit rate mode : Variable
Bit rate : 5 909 kb/s
Nominal bit rate : 500 kb/s
Maximum bit rate : 8 000 kb/s
Width : 1 920 pixels
Height : 1 080 pixels
Display aspect ratio : 16:9
Frame rate mode : Constant
Frame rate : 59.940 (60000/1001) FPS
Standard : Component
Color space : YUV
Chroma subsampling : 4:2:0
Bit depth : 8 bits
Scan type : Progressive
Bits/(Pixel*Frame) : 0.048
Stream size : 5.48 GiB (92%)
Forced : No
Color range : Limited
Color primaries : BT.709
Transfer characteristics : BT.709
Matrix coefficients : BT.709

WWE RAW Online

Audio
ID : 2
Format : AC-3
Format/Info : Audio Coding 3
Commercial name : Dolby Digital
Codec ID : A_AC3
Duration : 2 h 12 min
Bit rate mode : Constant
Bit rate : 384 kb/s
Channel(s) : 2 channels
Channel layout : L R
Sampling rate : 48.0 kHz
Frame rate : 31.250 FPS (1536 SPF)
Bit depth : 32 bits
Compression mode : Lossy
Stream size : 365 MiB (6%)
Language : English
Service kind : Complete Main
Default : Yes
Forced : No

Complete name : WWE.RAW.16th.August.2021.720p.WEBRip.h264-TJ.mp4
Format : MPEG-4
Format profile : Base Media
Codec ID : isom
File size : 2.73 GiB
Duration : 2 h 1 min
Overall bit rate mode : Variable
Overall bit rate : 3 223 kb/s
Law rating : TV-PG (V)

WWE RAW Online

Video
ID : 2
Format : AVC
Format/Info : Advanced Video
Duration : 2 h 1 min
Bit rate mode : Variable
Bit rate : 3 118 kb/s
Maximum bit rate : 3 500 kb/s
Width : 1 280 pixels
Height : 720 pixels
Display aspect ratio : 16:9
Frame rate : 59.940 (60000/1001) FPS
Standard : Component
Color space : YUV
Chroma subsampling : 4:2:0
Bit depth : 8 bits
Scan type : Progressive
Bits/(Pixel*Frame) : 0.056
Stream size : 2.64 GiB (97%)
Color range : Limited
Color primaries : BT.709
Transfer characteristics : BT.709
Matrix coefficients : BT.709
Codec configuration box : avc

WWE RAW Online

Audio
ID : 1
Format : AAC LC SBR
Commercial name : HE-AAC
Format settings : Implicit
Codec ID : mp4a-40-2
Duration : 2 h 1 min
Bit rate mode : Constant
Bit rate : 96.0 kb/s
Channel(s) : 2 channels
Channel layout : L R
Sampling rate : 48.0 kHz
Frame rate : 23.438 FPS (2048 SPF)
Compression mode : Lossy
Stream size : 82.2 MiB (3%)
Default : Yes
Alternate group : 1

WWE RAW Online

Text #1
ID : 2-CC1
Format : EIA-608
Muxing mode : SCTE 128 / DTVCC Transport
Muxing mode, more info : Muxed in Video #1
Duration : 2 h 1 min
Bit rate mode : Constant
Stream size : 0.00 Byte (0%)
CaptionServiceName : CC1

Text #2
ID : 2-1
Format : EIA-708
Muxing mode : SCTE 128 / DTVCC Transport
Muxing mode, more info : Muxed in Video #1
Duration : 2 h 1 min
Bit rate mode : Constant
Stream size : 0.00 Byte (0%)

WWE RAW Online

 

 

[collapse]

 

 

https://dx-tv.com/

Leave a Reply

Your email address will not be published. Required fields are marked *

This site uses Akismet to reduce spam. Learn how your comment data is processed.