DAZN Buatsi vs Bolotniks 2021 08 14 1080p Online Free

DAZN Buatsi vs Bolotniks 2021 08 14 1080p 24GB Online Free Replay DX-TV

Contents show

DAZN Buatsi vs Bolotniks

 DAZN Buatsi vs Bolotniks

 

 

 

Download Links with premium High Speed


 

Dopapk

 

 

Show Links

 

http://shrt10.com/YF4mV

 

[collapse]

 

 

Nitroflare

 

 

Show Links

 

http://shrt10.com/xooxU6m

 

[collapse]

 

 

Rapidgator

 

 

Show Links

 

http://shrt10.com/y3jkhaR

http://shrt10.com/p5Wstrc

 

[collapse]

 

 

Uploaded

 

 

Show Links

 

http://shrt10.com/hLNLq66Tw

 

[collapse]

 

 

Watch online

 

Server 1

 

 

 

 

watch now

 

 

 

 

Server-2

 

 

 

 

watch now

 

 

 

|Server-3

 

 

 

 

DAZN Buatsi vs Bolotniks

 

 

Uploaded By Site DX-TV.com

 

 

Show Info This Show

DAZN Buatsi vs Bolotniks

 

Complete name : 2021-08-14 DAZN(2).mp4
Format : MPEG-4
Format profile : Base Media
Codec ID : isom
File size : 3.39 GiB
Duration : 4 h 28 min
Overall bit rate : 1 810 kb/s

Video
ID : 1
Format : AVC
Format/Info : Advanced Video
Duration : 4 h 28 min
Bit rate : 1 680 kb/s
Width : 720 pixels
Height : 404 pixels
Display aspect ratio : 16:9
Original display aspect rat : 16:9
Frame rate mode : Constant
Frame rate : 25.000 FPS
Color space : YUV
Chroma subsampling : 4:2:0
Bit depth : 8 bits
Scan type : Progressive
Bits/(Pixel*Frame) : 0.231
Stream size : 3.14 GiB (92%)

DAZN Buatsi vs Bolotniks

Audio
ID : 2
Format : AAC LC
Format/Info : Advanced Audio
Codec ID : mp4a-40-2
Duration : 4 h 28 min
Bit rate mode : Constant
Bit rate : 132 kb/s
Channel(s) : 2 channels
Channel layout : L R
Sampling rate : 48.0 kHz
Frame rate : 46.875 FPS
Compression mode : Lossy
Stream size : 249 MiB (7%)
Language : English
Default : Yes
Alternate group : 1

Complete name : DAZN Presents Buatsi vs. Bolotniks Fight Night Replay 08-14-2021 WEB 1080p MP4 AAC.mp4
Format : MPEG-4
Codec ID : M4V
File size : 22.6 GiB
Duration : 4 h 24 min
Overall bit rate : 12.2 Mb/s

DAZN Buatsi vs Bolotniks

Video
ID : 1
Format : AVC
Format/Info : Advanced Video
Duration : 4 h 24 min
Bit rate : 11.9 Mb/s
Width : 1 920 pixels
Height : 1 080 pixels
Display aspect ratio : 16:9
Frame rate mode : Constant
Frame rate : 59.940 (59940/1000) FPS
Original frame rate : 59.940 (60000/1001) FPS
Color space : YUV
Chroma subsampling : 4:2:0
Bit depth : 8 bits
Scan type : Progressive
Bits/(Pixel*Frame) : 0.096
Stream size : 21.9 GiB (97%)
Language : English
Color range : Limited
Color primaries : BT.709
Transfer characteristics : BT.709
Matrix coefficients : BT.709
mdhd_Duration : 15878095
Codec configuration box : avc

DAZN Buatsi vs Bolotniks

Audio
ID : 2
Format : AAC LC
Codec ID : mp4a-40-2
Duration : 4 h 24 min
Bit rate mode : Constant
Bit rate : 320 kb/s
Channel(s) : 2 channels
Channel layout : L R
Sampling rate : 48.0 kHz
Frame rate : 46.875 FPS (1024 SPF)
Compression mode : Lossy
Stream size : 601 MiB (3%)
Language : English

DAZN Buatsi vs Bolotniks

Complete name : 2021-08-14 DAZN(2).mp4
Format : MPEG-4
Format profile : Base Media
Codec ID : isom
File size : 3.39 GiB
Duration : 4 h 28 min
Overall bit rate : 1 810 kb/s

Video
ID : 1
Format : AVC
Format/Info : Advanced Video
Duration : 4 h 28 min
Bit rate : 1 680 kb/s
Width : 720 pixels
Height : 404 pixels
Display aspect ratio : 16:9
Original display aspect rat : 16:9
Frame rate mode : Constant
Frame rate : 25.000 FPS
Color space : YUV
Chroma subsampling : 4:2:0
Bit depth : 8 bits
Scan type : Progressive
Bits/(Pixel*Frame) : 0.231
Stream size : 3.14 GiB (92%)

DAZN Buatsi vs Bolotniks

Audio
ID : 2
Format : AAC LC
Format/Info : Advanced Audio
Codec ID : mp4a-40-2
Duration : 4 h 28 min
Bit rate mode : Constant
Bit rate : 132 kb/s
Channel(s) : 2 channels
Channel layout : L R
Sampling rate : 48.0 kHz
Frame rate : 46.875 FPS
Compression mode : Lossy
Stream size : 249 MiB (7%)
Language : English
Default : Yes
Alternate group : 1

Complete name : DAZN Presents Buatsi vs. Bolotniks Fight Night Replay 08-14-2021 WEB 1080p MP4 AAC.mp4
Format : MPEG-4
Codec ID : M4V
File size : 22.6 GiB
Duration : 4 h 24 min
Overall bit rate : 12.2 Mb/s

DAZN Buatsi vs Bolotniks

Video
ID : 1
Format : AVC
Format/Info : Advanced Video
Duration : 4 h 24 min
Bit rate : 11.9 Mb/s
Width : 1 920 pixels
Height : 1 080 pixels
Display aspect ratio : 16:9
Frame rate mode : Constant
Frame rate : 59.940 (59940/1000) FPS
Original frame rate : 59.940 (60000/1001) FPS
Color space : YUV
Chroma subsampling : 4:2:0
Bit depth : 8 bits
Scan type : Progressive
Bits/(Pixel*Frame) : 0.096
Stream size : 21.9 GiB (97%)
Language : English
Color range : Limited
Color primaries : BT.709
Transfer characteristics : BT.709
Matrix coefficients : BT.709
mdhd_Duration : 15878095
Codec configuration box : avc

DAZN Buatsi vs Bolotniks

Audio
ID : 2
Format : AAC LC
Codec ID : mp4a-40-2
Duration : 4 h 24 min
Bit rate mode : Constant
Bit rate : 320 kb/s
Channel(s) : 2 channels
Channel layout : L R
Sampling rate : 48.0 kHz
Frame rate : 46.875 FPS (1024 SPF)
Compression mode : Lossy
Stream size : 601 MiB (3%)
Language : English

DAZN Buatsi vs Bolotniks

Complete name : 2021-08-14 DAZN(2).mp4
Format : MPEG-4
Format profile : Base Media
Codec ID : isom
File size : 3.39 GiB
Duration : 4 h 28 min
Overall bit rate : 1 810 kb/s

Video
ID : 1
Format : AVC
Format/Info : Advanced Video
Duration : 4 h 28 min
Bit rate : 1 680 kb/s
Width : 720 pixels
Height : 404 pixels
Display aspect ratio : 16:9
Original display aspect rat : 16:9
Frame rate mode : Constant
Frame rate : 25.000 FPS
Color space : YUV
Chroma subsampling : 4:2:0
Bit depth : 8 bits
Scan type : Progressive
Bits/(Pixel*Frame) : 0.231
Stream size : 3.14 GiB (92%)

DAZN Buatsi vs Bolotniks

Audio
ID : 2
Format : AAC LC
Format/Info : Advanced Audio
Codec ID : mp4a-40-2
Duration : 4 h 28 min
Bit rate mode : Constant
Bit rate : 132 kb/s
Channel(s) : 2 channels
Channel layout : L R
Sampling rate : 48.0 kHz
Frame rate : 46.875 FPS
Compression mode : Lossy
Stream size : 249 MiB (7%)
Language : English
Default : Yes
Alternate group : 1

Complete name : DAZN Presents Buatsi vs. Bolotniks Fight Night Replay 08-14-2021 WEB 1080p MP4 AAC.mp4
Format : MPEG-4
Codec ID : M4V
File size : 22.6 GiB
Duration : 4 h 24 min
Overall bit rate : 12.2 Mb/s

DAZN Buatsi vs Bolotniks

Video
ID : 1
Format : AVC
Format/Info : Advanced Video
Duration : 4 h 24 min
Bit rate : 11.9 Mb/s
Width : 1 920 pixels
Height : 1 080 pixels
Display aspect ratio : 16:9
Frame rate mode : Constant
Frame rate : 59.940 (59940/1000) FPS
Original frame rate : 59.940 (60000/1001) FPS
Color space : YUV
Chroma subsampling : 4:2:0
Bit depth : 8 bits
Scan type : Progressive
Bits/(Pixel*Frame) : 0.096
Stream size : 21.9 GiB (97%)
Language : English
Color range : Limited
Color primaries : BT.709
Transfer characteristics : BT.709
Matrix coefficients : BT.709
mdhd_Duration : 15878095
Codec configuration box : avc

DAZN Buatsi vs Bolotniks

Audio
ID : 2
Format : AAC LC
Codec ID : mp4a-40-2
Duration : 4 h 24 min
Bit rate mode : Constant
Bit rate : 320 kb/s
Channel(s) : 2 channels
Channel layout : L R
Sampling rate : 48.0 kHz
Frame rate : 46.875 FPS (1024 SPF)
Compression mode : Lossy
Stream size : 601 MiB (3%)
Language : English

DAZN Buatsi vs Bolotniks

Complete name : 2021-08-14 DAZN(2).mp4
Format : MPEG-4
Format profile : Base Media
Codec ID : isom
File size : 3.39 GiB
Duration : 4 h 28 min
Overall bit rate : 1 810 kb/s

Video
ID : 1
Format : AVC
Format/Info : Advanced Video
Duration : 4 h 28 min
Bit rate : 1 680 kb/s
Width : 720 pixels
Height : 404 pixels
Display aspect ratio : 16:9
Original display aspect rat : 16:9
Frame rate mode : Constant
Frame rate : 25.000 FPS
Color space : YUV
Chroma subsampling : 4:2:0
Bit depth : 8 bits
Scan type : Progressive
Bits/(Pixel*Frame) : 0.231
Stream size : 3.14 GiB (92%)

DAZN Buatsi vs Bolotniks

Audio
ID : 2
Format : AAC LC
Format/Info : Advanced Audio
Codec ID : mp4a-40-2
Duration : 4 h 28 min
Bit rate mode : Constant
Bit rate : 132 kb/s
Channel(s) : 2 channels
Channel layout : L R
Sampling rate : 48.0 kHz
Frame rate : 46.875 FPS
Compression mode : Lossy
Stream size : 249 MiB (7%)
Language : English
Default : Yes
Alternate group : 1

Complete name : DAZN Presents Buatsi vs. Bolotniks Fight Night Replay 08-14-2021 WEB 1080p MP4 AAC.mp4
Format : MPEG-4
Codec ID : M4V
File size : 22.6 GiB
Duration : 4 h 24 min
Overall bit rate : 12.2 Mb/s

DAZN Buatsi vs Bolotniks

Video
ID : 1
Format : AVC
Format/Info : Advanced Video
Duration : 4 h 24 min
Bit rate : 11.9 Mb/s
Width : 1 920 pixels
Height : 1 080 pixels
Display aspect ratio : 16:9
Frame rate mode : Constant
Frame rate : 59.940 (59940/1000) FPS
Original frame rate : 59.940 (60000/1001) FPS
Color space : YUV
Chroma subsampling : 4:2:0
Bit depth : 8 bits
Scan type : Progressive
Bits/(Pixel*Frame) : 0.096
Stream size : 21.9 GiB (97%)
Language : English
Color range : Limited
Color primaries : BT.709
Transfer characteristics : BT.709
Matrix coefficients : BT.709
mdhd_Duration : 15878095
Codec configuration box : avc

DAZN Buatsi vs Bolotniks

Audio
ID : 2
Format : AAC LC
Codec ID : mp4a-40-2
Duration : 4 h 24 min
Bit rate mode : Constant
Bit rate : 320 kb/s
Channel(s) : 2 channels
Channel layout : L R
Sampling rate : 48.0 kHz
Frame rate : 46.875 FPS (1024 SPF)
Compression mode : Lossy
Stream size : 601 MiB (3%)
Language : English

DAZN Buatsi vs Bolotniks

Complete name : 2021-08-14 DAZN(2).mp4
Format : MPEG-4
Format profile : Base Media
Codec ID : isom
File size : 3.39 GiB
Duration : 4 h 28 min
Overall bit rate : 1 810 kb/s

Video
ID : 1
Format : AVC
Format/Info : Advanced Video
Duration : 4 h 28 min
Bit rate : 1 680 kb/s
Width : 720 pixels
Height : 404 pixels
Display aspect ratio : 16:9
Original display aspect rat : 16:9
Frame rate mode : Constant
Frame rate : 25.000 FPS
Color space : YUV
Chroma subsampling : 4:2:0
Bit depth : 8 bits
Scan type : Progressive
Bits/(Pixel*Frame) : 0.231
Stream size : 3.14 GiB (92%)

DAZN Buatsi vs Bolotniks

Audio
ID : 2
Format : AAC LC
Format/Info : Advanced Audio
Codec ID : mp4a-40-2
Duration : 4 h 28 min
Bit rate mode : Constant
Bit rate : 132 kb/s
Channel(s) : 2 channels
Channel layout : L R
Sampling rate : 48.0 kHz
Frame rate : 46.875 FPS
Compression mode : Lossy
Stream size : 249 MiB (7%)
Language : English
Default : Yes
Alternate group : 1

Complete name : DAZN Presents Buatsi vs. Bolotniks Fight Night Replay 08-14-2021 WEB 1080p MP4 AAC.mp4
Format : MPEG-4
Codec ID : M4V
File size : 22.6 GiB
Duration : 4 h 24 min
Overall bit rate : 12.2 Mb/s

DAZN Buatsi vs Bolotniks

Video
ID : 1
Format : AVC
Format/Info : Advanced Video
Duration : 4 h 24 min
Bit rate : 11.9 Mb/s
Width : 1 920 pixels
Height : 1 080 pixels
Display aspect ratio : 16:9
Frame rate mode : Constant
Frame rate : 59.940 (59940/1000) FPS
Original frame rate : 59.940 (60000/1001) FPS
Color space : YUV
Chroma subsampling : 4:2:0
Bit depth : 8 bits
Scan type : Progressive
Bits/(Pixel*Frame) : 0.096
Stream size : 21.9 GiB (97%)
Language : English
Color range : Limited
Color primaries : BT.709
Transfer characteristics : BT.709
Matrix coefficients : BT.709
mdhd_Duration : 15878095
Codec configuration box : avc

DAZN Buatsi vs Bolotniks

Audio
ID : 2
Format : AAC LC
Codec ID : mp4a-40-2
Duration : 4 h 24 min
Bit rate mode : Constant
Bit rate : 320 kb/s
Channel(s) : 2 channels
Channel layout : L R
Sampling rate : 48.0 kHz
Frame rate : 46.875 FPS (1024 SPF)
Compression mode : Lossy
Stream size : 601 MiB (3%)
Language : English

DAZN Buatsi vs Bolotniks

Complete name : 2021-08-14 DAZN(2).mp4
Format : MPEG-4
Format profile : Base Media
Codec ID : isom
File size : 3.39 GiB
Duration : 4 h 28 min
Overall bit rate : 1 810 kb/s

Video
ID : 1
Format : AVC
Format/Info : Advanced Video
Duration : 4 h 28 min
Bit rate : 1 680 kb/s
Width : 720 pixels
Height : 404 pixels
Display aspect ratio : 16:9
Original display aspect rat : 16:9
Frame rate mode : Constant
Frame rate : 25.000 FPS
Color space : YUV
Chroma subsampling : 4:2:0
Bit depth : 8 bits
Scan type : Progressive
Bits/(Pixel*Frame) : 0.231
Stream size : 3.14 GiB (92%)

DAZN Buatsi vs Bolotniks

Audio
ID : 2
Format : AAC LC
Format/Info : Advanced Audio
Codec ID : mp4a-40-2
Duration : 4 h 28 min
Bit rate mode : Constant
Bit rate : 132 kb/s
Channel(s) : 2 channels
Channel layout : L R
Sampling rate : 48.0 kHz
Frame rate : 46.875 FPS
Compression mode : Lossy
Stream size : 249 MiB (7%)
Language : English
Default : Yes
Alternate group : 1

Complete name : DAZN Presents Buatsi vs. Bolotniks Fight Night Replay 08-14-2021 WEB 1080p MP4 AAC.mp4
Format : MPEG-4
Codec ID : M4V
File size : 22.6 GiB
Duration : 4 h 24 min
Overall bit rate : 12.2 Mb/s

DAZN Buatsi vs Bolotniks

Video
ID : 1
Format : AVC
Format/Info : Advanced Video
Duration : 4 h 24 min
Bit rate : 11.9 Mb/s
Width : 1 920 pixels
Height : 1 080 pixels
Display aspect ratio : 16:9
Frame rate mode : Constant
Frame rate : 59.940 (59940/1000) FPS
Original frame rate : 59.940 (60000/1001) FPS
Color space : YUV
Chroma subsampling : 4:2:0
Bit depth : 8 bits
Scan type : Progressive
Bits/(Pixel*Frame) : 0.096
Stream size : 21.9 GiB (97%)
Language : English
Color range : Limited
Color primaries : BT.709
Transfer characteristics : BT.709
Matrix coefficients : BT.709
mdhd_Duration : 15878095
Codec configuration box : avc

DAZN Buatsi vs Bolotniks

Audio
ID : 2
Format : AAC LC
Codec ID : mp4a-40-2
Duration : 4 h 24 min
Bit rate mode : Constant
Bit rate : 320 kb/s
Channel(s) : 2 channels
Channel layout : L R
Sampling rate : 48.0 kHz
Frame rate : 46.875 FPS (1024 SPF)
Compression mode : Lossy
Stream size : 601 MiB (3%)
Language : English

DAZN Buatsi vs Bolotniks

Complete name : 2021-08-14 DAZN(2).mp4
Format : MPEG-4
Format profile : Base Media
Codec ID : isom
File size : 3.39 GiB
Duration : 4 h 28 min
Overall bit rate : 1 810 kb/s

Video
ID : 1
Format : AVC
Format/Info : Advanced Video
Duration : 4 h 28 min
Bit rate : 1 680 kb/s
Width : 720 pixels
Height : 404 pixels
Display aspect ratio : 16:9
Original display aspect rat : 16:9
Frame rate mode : Constant
Frame rate : 25.000 FPS
Color space : YUV
Chroma subsampling : 4:2:0
Bit depth : 8 bits
Scan type : Progressive
Bits/(Pixel*Frame) : 0.231
Stream size : 3.14 GiB (92%)

DAZN Buatsi vs Bolotniks

Audio
ID : 2
Format : AAC LC
Format/Info : Advanced Audio
Codec ID : mp4a-40-2
Duration : 4 h 28 min
Bit rate mode : Constant
Bit rate : 132 kb/s
Channel(s) : 2 channels
Channel layout : L R
Sampling rate : 48.0 kHz
Frame rate : 46.875 FPS
Compression mode : Lossy
Stream size : 249 MiB (7%)
Language : English
Default : Yes
Alternate group : 1

Complete name : DAZN Presents Buatsi vs. Bolotniks Fight Night Replay 08-14-2021 WEB 1080p MP4 AAC.mp4
Format : MPEG-4
Codec ID : M4V
File size : 22.6 GiB
Duration : 4 h 24 min
Overall bit rate : 12.2 Mb/s

DAZN Buatsi vs Bolotniks

Video
ID : 1
Format : AVC
Format/Info : Advanced Video
Duration : 4 h 24 min
Bit rate : 11.9 Mb/s
Width : 1 920 pixels
Height : 1 080 pixels
Display aspect ratio : 16:9
Frame rate mode : Constant
Frame rate : 59.940 (59940/1000) FPS
Original frame rate : 59.940 (60000/1001) FPS
Color space : YUV
Chroma subsampling : 4:2:0
Bit depth : 8 bits
Scan type : Progressive
Bits/(Pixel*Frame) : 0.096
Stream size : 21.9 GiB (97%)
Language : English
Color range : Limited
Color primaries : BT.709
Transfer characteristics : BT.709
Matrix coefficients : BT.709
mdhd_Duration : 15878095
Codec configuration box : avc

DAZN Buatsi vs Bolotniks

Audio
ID : 2
Format : AAC LC
Codec ID : mp4a-40-2
Duration : 4 h 24 min
Bit rate mode : Constant
Bit rate : 320 kb/s
Channel(s) : 2 channels
Channel layout : L R
Sampling rate : 48.0 kHz
Frame rate : 46.875 FPS (1024 SPF)
Compression mode : Lossy
Stream size : 601 MiB (3%)
Language : English

DAZN Buatsi vs Bolotniks

Complete name : 2021-08-14 DAZN(2).mp4
Format : MPEG-4
Format profile : Base Media
Codec ID : isom
File size : 3.39 GiB
Duration : 4 h 28 min
Overall bit rate : 1 810 kb/s

Video
ID : 1
Format : AVC
Format/Info : Advanced Video
Duration : 4 h 28 min
Bit rate : 1 680 kb/s
Width : 720 pixels
Height : 404 pixels
Display aspect ratio : 16:9
Original display aspect rat : 16:9
Frame rate mode : Constant
Frame rate : 25.000 FPS
Color space : YUV
Chroma subsampling : 4:2:0
Bit depth : 8 bits
Scan type : Progressive
Bits/(Pixel*Frame) : 0.231
Stream size : 3.14 GiB (92%)

DAZN Buatsi vs Bolotniks

Audio
ID : 2
Format : AAC LC
Format/Info : Advanced Audio
Codec ID : mp4a-40-2
Duration : 4 h 28 min
Bit rate mode : Constant
Bit rate : 132 kb/s
Channel(s) : 2 channels
Channel layout : L R
Sampling rate : 48.0 kHz
Frame rate : 46.875 FPS
Compression mode : Lossy
Stream size : 249 MiB (7%)
Language : English
Default : Yes
Alternate group : 1

Complete name : DAZN Presents Buatsi vs. Bolotniks Fight Night Replay 08-14-2021 WEB 1080p MP4 AAC.mp4
Format : MPEG-4
Codec ID : M4V
File size : 22.6 GiB
Duration : 4 h 24 min
Overall bit rate : 12.2 Mb/s

DAZN Buatsi vs Bolotniks

Video
ID : 1
Format : AVC
Format/Info : Advanced Video
Duration : 4 h 24 min
Bit rate : 11.9 Mb/s
Width : 1 920 pixels
Height : 1 080 pixels
Display aspect ratio : 16:9
Frame rate mode : Constant
Frame rate : 59.940 (59940/1000) FPS
Original frame rate : 59.940 (60000/1001) FPS
Color space : YUV
Chroma subsampling : 4:2:0
Bit depth : 8 bits
Scan type : Progressive
Bits/(Pixel*Frame) : 0.096
Stream size : 21.9 GiB (97%)
Language : English
Color range : Limited
Color primaries : BT.709
Transfer characteristics : BT.709
Matrix coefficients : BT.709
mdhd_Duration : 15878095
Codec configuration box : avc

DAZN Buatsi vs Bolotniks

Audio
ID : 2
Format : AAC LC
Codec ID : mp4a-40-2
Duration : 4 h 24 min
Bit rate mode : Constant
Bit rate : 320 kb/s
Channel(s) : 2 channels
Channel layout : L R
Sampling rate : 48.0 kHz
Frame rate : 46.875 FPS (1024 SPF)
Compression mode : Lossy
Stream size : 601 MiB (3%)
Language : English

DAZN Buatsi vs Bolotniks

Complete name : 2021-08-14 DAZN(2).mp4
Format : MPEG-4
Format profile : Base Media
Codec ID : isom
File size : 3.39 GiB
Duration : 4 h 28 min
Overall bit rate : 1 810 kb/s

Video
ID : 1
Format : AVC
Format/Info : Advanced Video
Duration : 4 h 28 min
Bit rate : 1 680 kb/s
Width : 720 pixels
Height : 404 pixels
Display aspect ratio : 16:9
Original display aspect rat : 16:9
Frame rate mode : Constant
Frame rate : 25.000 FPS
Color space : YUV
Chroma subsampling : 4:2:0
Bit depth : 8 bits
Scan type : Progressive
Bits/(Pixel*Frame) : 0.231
Stream size : 3.14 GiB (92%)

DAZN Buatsi vs Bolotniks

Audio
ID : 2
Format : AAC LC
Format/Info : Advanced Audio
Codec ID : mp4a-40-2
Duration : 4 h 28 min
Bit rate mode : Constant
Bit rate : 132 kb/s
Channel(s) : 2 channels
Channel layout : L R
Sampling rate : 48.0 kHz
Frame rate : 46.875 FPS
Compression mode : Lossy
Stream size : 249 MiB (7%)
Language : English
Default : Yes
Alternate group : 1

Complete name : DAZN Presents Buatsi vs. Bolotniks Fight Night Replay 08-14-2021 WEB 1080p MP4 AAC.mp4
Format : MPEG-4
Codec ID : M4V
File size : 22.6 GiB
Duration : 4 h 24 min
Overall bit rate : 12.2 Mb/s

DAZN Buatsi vs Bolotniks

Video
ID : 1
Format : AVC
Format/Info : Advanced Video
Duration : 4 h 24 min
Bit rate : 11.9 Mb/s
Width : 1 920 pixels
Height : 1 080 pixels
Display aspect ratio : 16:9
Frame rate mode : Constant
Frame rate : 59.940 (59940/1000) FPS
Original frame rate : 59.940 (60000/1001) FPS
Color space : YUV
Chroma subsampling : 4:2:0
Bit depth : 8 bits
Scan type : Progressive
Bits/(Pixel*Frame) : 0.096
Stream size : 21.9 GiB (97%)
Language : English
Color range : Limited
Color primaries : BT.709
Transfer characteristics : BT.709
Matrix coefficients : BT.709
mdhd_Duration : 15878095
Codec configuration box : avc

DAZN Buatsi vs Bolotniks

Audio
ID : 2
Format : AAC LC
Codec ID : mp4a-40-2
Duration : 4 h 24 min
Bit rate mode : Constant
Bit rate : 320 kb/s
Channel(s) : 2 channels
Channel layout : L R
Sampling rate : 48.0 kHz
Frame rate : 46.875 FPS (1024 SPF)
Compression mode : Lossy
Stream size : 601 MiB (3%)
Language : English

DAZN Buatsi vs Bolotniks

Complete name : 2021-08-14 DAZN(2).mp4
Format : MPEG-4
Format profile : Base Media
Codec ID : isom
File size : 3.39 GiB
Duration : 4 h 28 min
Overall bit rate : 1 810 kb/s

Video
ID : 1
Format : AVC
Format/Info : Advanced Video
Duration : 4 h 28 min
Bit rate : 1 680 kb/s
Width : 720 pixels
Height : 404 pixels
Display aspect ratio : 16:9
Original display aspect rat : 16:9
Frame rate mode : Constant
Frame rate : 25.000 FPS
Color space : YUV
Chroma subsampling : 4:2:0
Bit depth : 8 bits
Scan type : Progressive
Bits/(Pixel*Frame) : 0.231
Stream size : 3.14 GiB (92%)

DAZN Buatsi vs Bolotniks

Audio
ID : 2
Format : AAC LC
Format/Info : Advanced Audio
Codec ID : mp4a-40-2
Duration : 4 h 28 min
Bit rate mode : Constant
Bit rate : 132 kb/s
Channel(s) : 2 channels
Channel layout : L R
Sampling rate : 48.0 kHz
Frame rate : 46.875 FPS
Compression mode : Lossy
Stream size : 249 MiB (7%)
Language : English
Default : Yes
Alternate group : 1

Complete name : DAZN Presents Buatsi vs. Bolotniks Fight Night Replay 08-14-2021 WEB 1080p MP4 AAC.mp4
Format : MPEG-4
Codec ID : M4V
File size : 22.6 GiB
Duration : 4 h 24 min
Overall bit rate : 12.2 Mb/s

DAZN Buatsi vs Bolotniks

Video
ID : 1
Format : AVC
Format/Info : Advanced Video
Duration : 4 h 24 min
Bit rate : 11.9 Mb/s
Width : 1 920 pixels
Height : 1 080 pixels
Display aspect ratio : 16:9
Frame rate mode : Constant
Frame rate : 59.940 (59940/1000) FPS
Original frame rate : 59.940 (60000/1001) FPS
Color space : YUV
Chroma subsampling : 4:2:0
Bit depth : 8 bits
Scan type : Progressive
Bits/(Pixel*Frame) : 0.096
Stream size : 21.9 GiB (97%)
Language : English
Color range : Limited
Color primaries : BT.709
Transfer characteristics : BT.709
Matrix coefficients : BT.709
mdhd_Duration : 15878095
Codec configuration box : avc

DAZN Buatsi vs Bolotniks

Audio
ID : 2
Format : AAC LC
Codec ID : mp4a-40-2
Duration : 4 h 24 min
Bit rate mode : Constant
Bit rate : 320 kb/s
Channel(s) : 2 channels
Channel layout : L R
Sampling rate : 48.0 kHz
Frame rate : 46.875 FPS (1024 SPF)
Compression mode : Lossy
Stream size : 601 MiB (3%)
Language : English

DAZN Buatsi vs Bolotniks

Complete name : 2021-08-14 DAZN(2).mp4
Format : MPEG-4
Format profile : Base Media
Codec ID : isom
File size : 3.39 GiB
Duration : 4 h 28 min
Overall bit rate : 1 810 kb/s

Video
ID : 1
Format : AVC
Format/Info : Advanced Video
Duration : 4 h 28 min
Bit rate : 1 680 kb/s
Width : 720 pixels
Height : 404 pixels
Display aspect ratio : 16:9
Original display aspect rat : 16:9
Frame rate mode : Constant
Frame rate : 25.000 FPS
Color space : YUV
Chroma subsampling : 4:2:0
Bit depth : 8 bits
Scan type : Progressive
Bits/(Pixel*Frame) : 0.231
Stream size : 3.14 GiB (92%)

DAZN Buatsi vs Bolotniks

Audio
ID : 2
Format : AAC LC
Format/Info : Advanced Audio
Codec ID : mp4a-40-2
Duration : 4 h 28 min
Bit rate mode : Constant
Bit rate : 132 kb/s
Channel(s) : 2 channels
Channel layout : L R
Sampling rate : 48.0 kHz
Frame rate : 46.875 FPS
Compression mode : Lossy
Stream size : 249 MiB (7%)
Language : English
Default : Yes
Alternate group : 1

Complete name : DAZN Presents Buatsi vs. Bolotniks Fight Night Replay 08-14-2021 WEB 1080p MP4 AAC.mp4
Format : MPEG-4
Codec ID : M4V
File size : 22.6 GiB
Duration : 4 h 24 min
Overall bit rate : 12.2 Mb/s

DAZN Buatsi vs Bolotniks

Video
ID : 1
Format : AVC
Format/Info : Advanced Video
Duration : 4 h 24 min
Bit rate : 11.9 Mb/s
Width : 1 920 pixels
Height : 1 080 pixels
Display aspect ratio : 16:9
Frame rate mode : Constant
Frame rate : 59.940 (59940/1000) FPS
Original frame rate : 59.940 (60000/1001) FPS
Color space : YUV
Chroma subsampling : 4:2:0
Bit depth : 8 bits
Scan type : Progressive
Bits/(Pixel*Frame) : 0.096
Stream size : 21.9 GiB (97%)
Language : English
Color range : Limited
Color primaries : BT.709
Transfer characteristics : BT.709
Matrix coefficients : BT.709
mdhd_Duration : 15878095
Codec configuration box : avc

DAZN Buatsi vs Bolotniks

Audio
ID : 2
Format : AAC LC
Codec ID : mp4a-40-2
Duration : 4 h 24 min
Bit rate mode : Constant
Bit rate : 320 kb/s
Channel(s) : 2 channels
Channel layout : L R
Sampling rate : 48.0 kHz
Frame rate : 46.875 FPS (1024 SPF)
Compression mode : Lossy
Stream size : 601 MiB (3%)
Language : English

DAZN Buatsi vs Bolotniks

Complete name : 2021-08-14 DAZN(2).mp4
Format : MPEG-4
Format profile : Base Media
Codec ID : isom
File size : 3.39 GiB
Duration : 4 h 28 min
Overall bit rate : 1 810 kb/s

Video
ID : 1
Format : AVC
Format/Info : Advanced Video
Duration : 4 h 28 min
Bit rate : 1 680 kb/s
Width : 720 pixels
Height : 404 pixels
Display aspect ratio : 16:9
Original display aspect rat : 16:9
Frame rate mode : Constant
Frame rate : 25.000 FPS
Color space : YUV
Chroma subsampling : 4:2:0
Bit depth : 8 bits
Scan type : Progressive
Bits/(Pixel*Frame) : 0.231
Stream size : 3.14 GiB (92%)

DAZN Buatsi vs Bolotniks

Audio
ID : 2
Format : AAC LC
Format/Info : Advanced Audio
Codec ID : mp4a-40-2
Duration : 4 h 28 min
Bit rate mode : Constant
Bit rate : 132 kb/s
Channel(s) : 2 channels
Channel layout : L R
Sampling rate : 48.0 kHz
Frame rate : 46.875 FPS
Compression mode : Lossy
Stream size : 249 MiB (7%)
Language : English
Default : Yes
Alternate group : 1

Complete name : DAZN Presents Buatsi vs. Bolotniks Fight Night Replay 08-14-2021 WEB 1080p MP4 AAC.mp4
Format : MPEG-4
Codec ID : M4V
File size : 22.6 GiB
Duration : 4 h 24 min
Overall bit rate : 12.2 Mb/s

DAZN Buatsi vs Bolotniks

Video
ID : 1
Format : AVC
Format/Info : Advanced Video
Duration : 4 h 24 min
Bit rate : 11.9 Mb/s
Width : 1 920 pixels
Height : 1 080 pixels
Display aspect ratio : 16:9
Frame rate mode : Constant
Frame rate : 59.940 (59940/1000) FPS
Original frame rate : 59.940 (60000/1001) FPS
Color space : YUV
Chroma subsampling : 4:2:0
Bit depth : 8 bits
Scan type : Progressive
Bits/(Pixel*Frame) : 0.096
Stream size : 21.9 GiB (97%)
Language : English
Color range : Limited
Color primaries : BT.709
Transfer characteristics : BT.709
Matrix coefficients : BT.709
mdhd_Duration : 15878095
Codec configuration box : avc

DAZN Buatsi vs Bolotniks

Audio
ID : 2
Format : AAC LC
Codec ID : mp4a-40-2
Duration : 4 h 24 min
Bit rate mode : Constant
Bit rate : 320 kb/s
Channel(s) : 2 channels
Channel layout : L R
Sampling rate : 48.0 kHz
Frame rate : 46.875 FPS (1024 SPF)
Compression mode : Lossy
Stream size : 601 MiB (3%)
Language : English

DAZN Buatsi vs Bolotniks

Complete name : 2021-08-14 DAZN(2).mp4
Format : MPEG-4
Format profile : Base Media
Codec ID : isom
File size : 3.39 GiB
Duration : 4 h 28 min
Overall bit rate : 1 810 kb/s

Video
ID : 1
Format : AVC
Format/Info : Advanced Video
Duration : 4 h 28 min
Bit rate : 1 680 kb/s
Width : 720 pixels
Height : 404 pixels
Display aspect ratio : 16:9
Original display aspect rat : 16:9
Frame rate mode : Constant
Frame rate : 25.000 FPS
Color space : YUV
Chroma subsampling : 4:2:0
Bit depth : 8 bits
Scan type : Progressive
Bits/(Pixel*Frame) : 0.231
Stream size : 3.14 GiB (92%)

DAZN Buatsi vs Bolotniks

Audio
ID : 2
Format : AAC LC
Format/Info : Advanced Audio
Codec ID : mp4a-40-2
Duration : 4 h 28 min
Bit rate mode : Constant
Bit rate : 132 kb/s
Channel(s) : 2 channels
Channel layout : L R
Sampling rate : 48.0 kHz
Frame rate : 46.875 FPS
Compression mode : Lossy
Stream size : 249 MiB (7%)
Language : English
Default : Yes
Alternate group : 1

Complete name : DAZN Presents Buatsi vs. Bolotniks Fight Night Replay 08-14-2021 WEB 1080p MP4 AAC.mp4
Format : MPEG-4
Codec ID : M4V
File size : 22.6 GiB
Duration : 4 h 24 min
Overall bit rate : 12.2 Mb/s

DAZN Buatsi vs Bolotniks

Video
ID : 1
Format : AVC
Format/Info : Advanced Video
Duration : 4 h 24 min
Bit rate : 11.9 Mb/s
Width : 1 920 pixels
Height : 1 080 pixels
Display aspect ratio : 16:9
Frame rate mode : Constant
Frame rate : 59.940 (59940/1000) FPS
Original frame rate : 59.940 (60000/1001) FPS
Color space : YUV
Chroma subsampling : 4:2:0
Bit depth : 8 bits
Scan type : Progressive
Bits/(Pixel*Frame) : 0.096
Stream size : 21.9 GiB (97%)
Language : English
Color range : Limited
Color primaries : BT.709
Transfer characteristics : BT.709
Matrix coefficients : BT.709
mdhd_Duration : 15878095
Codec configuration box : avc

DAZN Buatsi vs Bolotniks

Audio
ID : 2
Format : AAC LC
Codec ID : mp4a-40-2
Duration : 4 h 24 min
Bit rate mode : Constant
Bit rate : 320 kb/s
Channel(s) : 2 channels
Channel layout : L R
Sampling rate : 48.0 kHz
Frame rate : 46.875 FPS (1024 SPF)
Compression mode : Lossy
Stream size : 601 MiB (3%)
Language : English

DAZN Buatsi vs Bolotniks

Complete name : 2021-08-14 DAZN(2).mp4
Format : MPEG-4
Format profile : Base Media
Codec ID : isom
File size : 3.39 GiB
Duration : 4 h 28 min
Overall bit rate : 1 810 kb/s

Video
ID : 1
Format : AVC
Format/Info : Advanced Video
Duration : 4 h 28 min
Bit rate : 1 680 kb/s
Width : 720 pixels
Height : 404 pixels
Display aspect ratio : 16:9
Original display aspect rat : 16:9
Frame rate mode : Constant
Frame rate : 25.000 FPS
Color space : YUV
Chroma subsampling : 4:2:0
Bit depth : 8 bits
Scan type : Progressive
Bits/(Pixel*Frame) : 0.231
Stream size : 3.14 GiB (92%)

DAZN Buatsi vs Bolotniks

Audio
ID : 2
Format : AAC LC
Format/Info : Advanced Audio
Codec ID : mp4a-40-2
Duration : 4 h 28 min
Bit rate mode : Constant
Bit rate : 132 kb/s
Channel(s) : 2 channels
Channel layout : L R
Sampling rate : 48.0 kHz
Frame rate : 46.875 FPS
Compression mode : Lossy
Stream size : 249 MiB (7%)
Language : English
Default : Yes
Alternate group : 1

Complete name : DAZN Presents Buatsi vs. Bolotniks Fight Night Replay 08-14-2021 WEB 1080p MP4 AAC.mp4
Format : MPEG-4
Codec ID : M4V
File size : 22.6 GiB
Duration : 4 h 24 min
Overall bit rate : 12.2 Mb/s

DAZN Buatsi vs Bolotniks

Video
ID : 1
Format : AVC
Format/Info : Advanced Video
Duration : 4 h 24 min
Bit rate : 11.9 Mb/s
Width : 1 920 pixels
Height : 1 080 pixels
Display aspect ratio : 16:9
Frame rate mode : Constant
Frame rate : 59.940 (59940/1000) FPS
Original frame rate : 59.940 (60000/1001) FPS
Color space : YUV
Chroma subsampling : 4:2:0
Bit depth : 8 bits
Scan type : Progressive
Bits/(Pixel*Frame) : 0.096
Stream size : 21.9 GiB (97%)
Language : English
Color range : Limited
Color primaries : BT.709
Transfer characteristics : BT.709
Matrix coefficients : BT.709
mdhd_Duration : 15878095
Codec configuration box : avc

DAZN Buatsi vs Bolotniks

Audio
ID : 2
Format : AAC LC
Codec ID : mp4a-40-2
Duration : 4 h 24 min
Bit rate mode : Constant
Bit rate : 320 kb/s
Channel(s) : 2 channels
Channel layout : L R
Sampling rate : 48.0 kHz
Frame rate : 46.875 FPS (1024 SPF)
Compression mode : Lossy
Stream size : 601 MiB (3%)
Language : English

DAZN Buatsi vs Bolotniks

 

[collapse]

 

 

https://dx-tv.com/

Leave a Reply

Your email address will not be published. Required fields are marked *

This site uses Akismet to reduce spam. Learn how your comment data is processed.