WWE Raw 2021 02 01 720p /1080p HDTV Star

WWE Raw 2021 02 01 720p /1080p HDTV Star DX-TV

WWE Raw 2021 02 01

 WWE Raw 2021 02 01

 

Download Links with premium High Speed   

 

 

dropapk.to

http://shrt10.com/PRQwz
http://shrt10.com/wZm9xZ9
http://shrt10.com/th9eBiv

 

 

nitroflare.com

http://shrt10.com/St7FI
http://shrt10.com/TEGgE
http://shrt10.com/XeUQ9

 

 

rapidgator.net

http://shrt10.com/lfjLpz
http://shrt10.com/ON4WPdLlP
http://shrt10.com/0Udus0

 

 

uploaded.net

http://shrt10.com/ho17hWao
http://shrt10.com/eTqpGUdkd

no 1080p

 

 

Watch WWE Raw 2021 online

 

Server 1

 

 

 

 

WWE Raw 2021

 

 

 

 

Server-2

 

 

 

 

watch now

 

 

Uploaded By Site DX-TV.com

 

 

Complete name : WWE.Monday.Night.Raw.2021.02.01.HDTV.x264-Star.mp4
Format : MPEG-4
Format profile : Base Media
Codec ID : mp42
File size : 1.35 GiB
Duration : 2 h 15 min
Overall bit rate : 1 417 kb/s

WWE Raw 2021

Video
ID : 1
Format : AVC
Format/Info : Advanced Video
Duration : 2 h 15 min
Bit rate : 1 300 kb/s
Width : 720 pixels
Height : 480 pixels
Display aspect ratio : 16:9
Original display aspect rat : 16:9
Frame rate mode : Constant
Frame rate : 29.970 (30000/1001) FPS
Standard : NTSC
Color space : YUV
Chroma subsampling : 4:2:0
Bit depth : 8 bits
Scan type : Progressive
Bits/(Pixel*Frame) : 0.126
Stream size : 1.23 GiB (92%)
Color range : Limited
Color primaries : BT.709
Transfer characteristics : BT.709
Matrix coefficients : BT.709
Codec configuration box : avc

WWE Raw 2021

Audio
ID : 2
Format : AAC LC
Format/Info : Advanced Audio
Codec ID : mp4a-40-2
Duration : 2 h 15 min
Bit rate mode : Constant
Bit rate : 111 kb/s
Channel(s) : 2 channels
Channel layout : L R
Sampling rate : 48.0 kHz
Frame rate : 46.875 FPS (1024 SPF)
Compression mode : Lossy
Stream size : 108 MiB (8%)
Title : Stereo
Default : Yes
Alternate group : 1

Complete name : WWE.Monday.Night.Raw.2021.02.01.720p.HDTV.x264-Star.mkv
Format : Matroska
Format version : Version 4
File size : 3.92 GiB
Duration : 2 h 15 min
Overall bit rate : 4 123 kb/s

WWE Raw 2021

Video
ID : 1
Format : AVC
Format/Info : Advanced Video
Duration : 2 h 15 min
Bit rate : 4 000 kb/s
Width : 1 280 pixels
Height : 720 pixels
Display aspect ratio : 16:9
Frame rate mode : Constant
Frame rate : 29.970 FPS
Color space : YUV
Chroma subsampling : 4:2:0
Bit depth : 8 bits
Scan type : Progressive
Bits/(Pixel*Frame) : 0.145
Stream size : 3.72 GiB (95%)
Forced : No
Color range : Limited
Color primaries : BT.709
Transfer characteristics : BT.709
Matrix coefficients : BT.709

Audio
ID : 2
Format : AC-3
Format/Info : Audio Coding 3
Commercial name : Dolby Digital
Codec ID : A_AC3
Duration : 2 h 15 min
Bit rate mode : Constant
Bit rate : 128 kb/s
Channel(s) : 2 channels
Channel layout : L R
Sampling rate : 48.0 kHz
Frame rate : 31.250 FPS
Compression mode : Lossy
Delay relative to video : -5 ms
Stream size : 125 MiB (3%)
Title : Stereo
Service kind : Complete Main
Default : Yes
Forced : No

Complete name : WWE.Monday.Night.Raw.2021.02.01.1080p.HDTV.x264-Star.mkv
Format : Matroska
Format version : Version 4
File size : 7.71 GiB
Duration : 2 h 15 min
Overall bit rate : 8 120 kb/s

WWE Raw 2021

Video
ID : 1
Format : AVC
Format/Info : Advanced Video
Duration : 2 h 15 min
Bit rate : 8 000 kb/s
Width : 1 920 pixels
Height : 1 080 pixels
Display aspect ratio : 16:9
Frame rate mode : Constant
Frame rate : 29.970 (30000/1001) FPS
Color space : YUV
Chroma subsampling : 4:2:0
Bit depth : 8 bits
Scan type : Progressive
Bits/(Pixel*Frame) : 0.129
Stream size : 7.44 GiB (96%)
Forced : No
Color range : Limited
Color primaries : BT.709
Transfer characteristics : BT.709
Matrix coefficients : BT.709

Audio
ID : 2
Format : AC-3
Format/Info : Audio Coding 3
Commercial name : Dolby Digital
Codec ID : A_AC3
Duration : 2 h 15 min
Bit rate mode : Constant
Bit rate : 128 kb/s
Channel(s) : 2 channels
Channel layout : L R
Sampling rate : 48.0 kHz
Frame rate : 31.250 FPS
Compression mode : Lossy
Delay relative to video : -5 ms
Stream size : 125 MiB (2%)
Title : Stereo
Service kind : Complete Main
Default : Yes
Forced : No

 

 

https://dx-tv.com/

You May Also Like

Leave a Reply

Your email address will not be published. Required fields are marked *

This site uses Akismet to reduce spam. Learn how your comment data is processed.