WWE RAW 2020 03 23 HDTV Star

Watch WWE RAW 2020 03 23 HDTV Star DX-TV

WWE

 

 WWE RAW

 

 

WWE RAW 2020 03 23 HDTV Star

Complete name : WWE.RAW.2020.03.23.HDTV.x264-Star.mp4
Format : MPEG-4
Format profile : WWE
Codec ID : mp42
File size : 1.77 GiB
Duration : 2 h 11 min
Overall bit rate : 1 922 kb/s

Video
ID : 1
Format : AVC
Duration : 2 h 11 min
Bit rate : 1 600 kb/s
Width : 720 pixels
Height : 406 pixels
Display aspect ratio : 16:9
Frame rate mode : WWE
Frame rate : 59.940 (60000/1001) FPS
Minimum frame rate : 59.920 FPS
Maximum frame rate : 59.960 FPS
Color space : WWE
Chroma  : 4:2:0
Bit depth : 8 bits
Scan type : Progressive
Bits/(Pixel*Frame) : 0.091
Stream size : 1.47 GiB (83%)
Color range : WWE
Color primaries : BT.709
Transfer characteristics :WWE
Matrix coefficients : BT.709
Codec configuration box : avcC

Audio
ID : 2
Format : AAC LC
Format/Info : Advanced
Codec ID : mp4a-40-2
Duration : 2 h 11 min
Bit rate mode : WWE
Bit rate : 314 kb/s
Channel(s) : 2 channels
Channel layout : L R
Sampling rate : 48.0 kHz
Frame rate : 46.875 FPS (1024 SPF)
Compression mode : Lossy
Stream size : 296 MiB (16%)
Title : WWE
Default : Yes
Alternate group : 1

 

 

 

Watch online

 

 

Server 1

 

 

 

 

watch now

 

 

 

 

Server 2

 

 

 

watch now

 

 

 

WWE RAW 2020 03 23 HDTV Star

 

 

Uploaded By Site DX-TV.com

 

 

Download with Free Links 

 

 

1fichier.com

 

 

DDL.to

 

 

rockfile.co

 

 

 

Download with premium account Links 

 

 

Keep2Share

 

 

mixdrop.co

 

 

alfafile.net

 

 

nitroflare.com

 

 

rapidgator.net

 

 

uploadgig.com

 

 

 

dx-tv.com

 

urlfree.net

Leave a Reply

Your email address will not be published. Required fields are marked *

This site uses Akismet to reduce spam. Learn how your comment data is processed.