Watch WWE Raw 2020 03 23 720p Online

WWE Raw 2020 03 23 720p NWCHD DX-TV

Watch WWE

 

 WWE RAW

 

 

Watch WWE Raw 2020 03 23 720p Online

 

 

Complete name : WWE.Monday.Night.Raw.2020.03.23.720p.HDTV.x264-NWCHD.mp4
Format : MPEG-4
Format profile : Watch WWE
Codec ID : isom
File size : 4.08 GiB
Duration : 2 h 4 min
Overall bit rate : 4 695 kb/s
Writing application : Watch WWE

Video
ID : 1
Format : AVC
Duration : 2 h 4 min
Bit rate : 4 500 kb/s
Width : 1 280 pixels
Height : 720 pixels
Display aspect ratio : 16:9
Frame rate mode : Watch WWE
Frame rate : 29.970 (30000/1001) FPS
Minimum frame rate : 29.126 FPS
Maximum frame rate : 29.970 FPS
Color space : YUV
Chroma  : 4:2:0
Bit depth : 8 bits
Scan type : Watch WWE
Bits/(Pixel*Frame) : 0.163
Stream size : 3.91 GiB (96%)
Color primaries : BT.709
Transfer characteristics : BT.709
Matrix coefficients : BT.709
Codec configuration box : avcC

Audio
ID : 2
Format : AAC LC
Format/Info : Advanced
Codec ID : mp4a-40-2
Duration : 2 h 4 min
Bit rate mode : Watch WWE
Bit rate : 192 kb/s
Channel(s) : 2 channels
Channel layout : L R
Sampling rate : 48.0 kHz
Frame rate : 46.875 FPS (1024 SPF)
Compression mode : Lossy
Stream size : 171 MiB (4%)
Title : Stereo
Default : Watch WWE
Alternate group : 1

 

 

 

Watch online

 

 

Server 1

 

 

 

 

watch now

 

 

 

 

Server 2

 

 

 

watch now

 

 

 

Watch WWE Raw 2020 03 23 720p Online

 

 

Uploaded By Site DX-TV.com

 

 

Download with Free Links 

 

 

1fichier.com

https://shrt10.com/0bAZr
https://shrt10.com/l7lHmfT
https://shrt10.com/L7CGhdwu

 

DDL.to

https://shrt10.com/BKCnE9pv2
https://shrt10.com/ieBcc4
https://shrt10.com/67mexe

 

rockfile.co

https://shrt10.com/DOJSaa4tq
https://shrt10.com/tRJ4u
https://shrt10.com/VE9HjG8

 

 

Download with premium account Links 

 

 

Keep2Share

 

 

mixdrop.co

 

 

alfafile.net

 

 

nitroflare.com

 

 

rapidgator.net

 

 

uploadgig.com

 

 

 

dx-tv.com

 

urlfree.net

Leave a Reply

Your email address will not be published. Required fields are marked *

This site uses Akismet to reduce spam. Learn how your comment data is processed.

%d bloggers like this: