WWE NXT 2020 09 23 Full Show Online

Watch WWE NXT 2020 09 23 Full Show Online DX-TV

 

WWE NXT

 

 WWE NXT

 

WWE NXT 2020 09 23 Full Show Online

 

 

Damian Priest to put the NXT North American Title on the line against Timothy Thatcher

Timothy Thatcher wanted the first opportunity at Damian Priest’s newly won North American Title,

and now he’s got it Confronting Priest last month Thatcher took umbrage with the poor way,

he believes The Archer of Infamy carries himself as a champion.

Last week he also pointed out what he perceived as flaws in Priest’s game during his latest Thatch-as-Thatch-can class,

But Priest turned in a nearly flawless performance at WWE NXT TakeOver XXX,

prevailing over four top WWE NXT Superstars in a Ladder Match to claim the vacant North American Championship.

Can Priest turn aside Thatcher’s challenge, or will his infamy be short-lived?

WWE NXT

Tommaso Ciampa struck down Jake Atlas as the first victim of his resurgent sadism,

but he failed to put Atlas on the shelf is good. Now Atlas will be out for payback in a rematch.

After a nearly three-month absence, Ciampa returned to the black-and-gold brand last month,

defeating Atlas and committing a savage assault afterward, including a Willow’s Bell DDT from a stretcher to put Atlas on the NXT Injury Report.

The Blackheart appears to have rediscovered the same vicious side that helped him win the NXT Championship, which is likely bad news for the rest of the roster.

Atlas learned that lesson again last week when he was ambushed in the parking lot after confronting Ciampa earlier in the evening.

Fortunately for Atlas, Kyle O’Reilly stepped in before the attack escalated. But will Atlas be able to fight off the vicious Blackheart when they step in the ring again?

WWE NXT

Complete name : WWE.NXT.23rd.Sept.2020.WEBRip.h264-TJ.mp4
Format : MPEG-4
Format profile : Base Media / Version 2
Codec ID : mp42
File size : 982 MiB
Duration : 1 h 29 min
Overall bit rate mode : Variable
Overall bit rate : 1 532 kb/s

WWE NXT

Video
ID : 1
Format : AVC
Codec ID/Info : Advanced Video
Duration : 1 h 29 min
Bit rate : 1 400 kb/s
Width : 704 pixels
Height : 396 pixels
Display aspect ratio : 16:9
rate mode : Constant
rate : 29.970 (30000/1001) FPS
Color space : YUV
Chroma subsampling : 4:2:0
Bit depth : 8 bits
Scan type : Progressive
Bits/(Pixel*Frame) : 0.168
Stream size : 896 MiB (91%)
Color range : Limited
Color primaries : BT.709
Transfer characteristics : BT.709
Matrix coefficients : BT.709
Codec configuration box : avcC

WWE NXT

Audio
ID : 2
Format : AAC LC
Format/Info : Advanced Audio
Codec ID : mp4a-40-2
Duration : 1 h 29 min
Bit rate mode : Variable
Bit rate : 128 kb/s
Channel(s) : 2 channels
Channel layout : L R
Sampling rate : 48.0 kHz
Frame rate : 46.875 FPS (1024 SPF)
Compression mode : Lossy
Stream size : 82.2 MiB (8%)
Title : Stereo / Stereo
Default : Yes
Alternate group : 1

a

Watch online

 

 

 

 

 

Server 1

 

 

 

 

watch now

 

 

 

 

Server-2

 

 

 

WWE NXT

 

 

 

 

Server-3

 

 

 

watch now

 

 

 

 

Uploaded By Site DX-TV.com

 

 

 

 

Download Free Links with normal and high Speed [ more 15 hosts ]  

 

 

 

http://shrt10.com/Itr3cKIu
http://shrt10.com/gbeUz
http://shrt10.com/fSrOh
http://shrt10.com/vw7h7L2
http://shrt10.com/mn3VTqCS7
http://shrt10.com/mi5UGUg1
http://shrt10.com/2pbudM
http://shrt10.com/rd8kQjV2
http://shrt10.com/zr1XHgtW
http://shrt10.com/lMA6CC
http://shrt10.com/ASLLNiM
http://shrt10.com/xjzQVr4
http://shrt10.com/6JNjxsxU3

 

 

 

 

Download Links with premium High Speed   

 

 

 

 

 

uploaded.net

 

 

 

nitroflare.com

 

 

 

rapidgator.net

 

 

 

uploadgig.com

 

 

 

 

 

dx-tv.com

 

urlfree.net

Leave a Reply

Your email address will not be published. Required fields are marked *

This site uses Akismet to reduce spam. Learn how your comment data is processed.