WWE NXT 720p 2020 09 23 Full Show Free

Watch WWE NXT 720p 2020 09 23 Full Show Free DX-TV

 

WWE NXT

 

 WWE NXT

 

WWE NXT 720p 2020 09 23 Full Show Free

 

 

 

Complete name : WWE.NXT.2020.09.23.720p.60FPS.WEB.h264-lulz.mkv
Format : Matroska
Format version : Version 4
File size : 2.66 GiB
Duration : 1 h 30 min
Overall bit rate mode : Variable
Overall bit rate : 4 230 kb/sx

WWE NXT

Video
ID : 1
Format : AVC
Duration : 1 h 30 min
Bit rate mode : Variable
Bit rate : 4 097 kb/s
Maximum bit rate : 4 500 kb/s
Width : 1 280 pixels
Height : 720 pixels
Display aspect ratio : 16:9
Frame rate mode : Constant
rate : 59.940 (59940/1000) FPS
Color space : YUV
Chroma subsampling : 4:2:0
Bit depth : 8 bits
Scan type : Progressive
Bits/(Pixel*Frame) : 0.074
Stream size : 2.58 GiB (97%)
Default : Yes
Forced : No

WWE NXT

Audio
ID : 2
Format : AAC LC
Format/Info : Advanced Audio
Codec ID : A_AAC-2
Duration : 1 h 30 min
Bit rate : 128 kb/s
Channel(s) : 2 channels
Channel layout : L R
Sampling rate : 48.0 kHz
Frame rate : 46.875 FPS (1024 SPF)
Compression mode : Lossy
Stream size : 82.5 MiB (3%)
Default : Yes
Forced : No

WWE NXT

First-ever Gauntlet Eliminator Match to decide Finn Bálor’s first challenger

Who will get the first chance to challenge The Prince?

The answer to that question will be decided in the first-ever Gauntlet Eliminator Match next Wednesday in the Takeoff to TakeOver on NXT, 

Kushida, Cameron Grimes, Kyle O’Reilly, Timothy Thatcher and Bronson Reed will battle in this unique bout with the rules as follows WWE NXT,

  • Two men will start in the ring.
  • The only way to be eliminated is via pinfall or submission
  • The last man standing will be named the No1 Contender and challenge Finn Bálor for the NXT Title at the next edition of WWE NXT TakeOver on Sunday, Oct. 4

WWE NXT

Which Superstar will emerge victorious and earn an opportunity at the WWE NXT Championship?

Stay tuned to WWE’s digital and social platforms in the coming days as the rest of the field is revealed.

 

NXT 720p 2020 09 23 Full Show Free

 

 

 

 

Watch online

 

 

 

 

 

Server 1

 

 

 

 

watch now

 

 

 

 

Server-2

 

 

 

watch now

 

 

 

 

Server-3

 

 

 

watch now

 

 

 

 

Uploaded By Site DX-TV.com

 

 

 

 

Download Free Links with normal and high Speed [ more 15 hosts ]  

 

 

 

http://shrt10.com/juZfW
http://shrt10.com/WA8oaBOBH
http://shrt10.com/rh3gq
http://shrt10.com/URXAg
http://shrt10.com/yDoT9By
http://shrt10.com/2htCyd
http://shrt10.com/OCvh9
http://shrt10.com/hTX5QAe
http://shrt10.com/lBFbR

 

 

 

 

Download Links with premium High Speed   

 

 

 

 

 

Keep2Share

 

 

 

uploaded.net

 

 

 

nitroflare.com

 

 

 

rapidgator.net

 

 

 

uploadgig.com

 

 

 

 

 

dx-tv.com

 

urlfree.net

Leave a Reply

Your email address will not be published. Required fields are marked *

This site uses Akismet to reduce spam. Learn how your comment data is processed.