WWE Fastlane 2021 Online Full Show Free Replay 720p

WWE Fastlane 2021 Online Full Show Free Replay 720p DX-TV

WWE Fastlane 2021 Online

 WWE Fastlane 2021 Online

 

 

 

Download Links with High Speed


Dopapk

 

 

 

 

Nitroflare

 

 

Show Links

 

http://shrt10.com/c24FnCmR
http://shrt10.com/Vjzca

 

[collapse]

 

 

Rapidgator

 

 

Show Links

 

http://shrt10.com/AFY9y
http://shrt10.com/nlAIcJmzi

 

[collapse]

 

 

Uploaded

 

 

Show Links

 

http://shrt10.com/GTRApykwC
http://shrt10.com/OR4SLjZQ

 

[collapse]

 

 

Watch online

 

Server 1

 

 

 

 

WWE Fastlane 2021

 

 

 

 

Server-2

 

 

 

 

watch now

 

 

 

|Server-3

 

 

 

 

WWE Fastlane 2021

 

 

Uploaded By Site DX-TV.com

 

 

Show Info This Show

 

 

Complete name : WWE.Fastlane.2021.PPV.WEB.h264-HEEL.mp4
Format : MPEG-4
Format profile : Base Media
File size : 1.92 GiB
Duration : 2 h 44 min
Overall bit rate mode : Variable
Overall bit rate : 1 678 kb/s
Law rating : N/A

WWE Fastlane 2021

Video
ID : 1
Format : AVC
Duration : 2 h 44 min
Bit rate mode : Variable
Bit rate : 1 544 kb/s
Maximum bit rate : 1 663 kb/s
Width : 896 pixels
Height : 504 pixels
Display aspect ratio : 16:9
Frame rate mode : Variable
Frame rate : 30.000 FPS
Minimum frame rate : 29.412 FPS
Maximum frame rate : 30.303 FPS
Standard : NTSC
Color space : YUV
Chroma subsampling : 4:2:0
Bit depth : 8 bits
Scan type : Progressive
Bits/(Pixel*Frame) : 0.114
Stream size : 1.77 GiB (92%)
Color range : Limited
Color primaries : BT.709
Transfer characteristics : BT.709
Matrix coefficients : BT.709
Codec configuration box : avcC

Audio
ID : 2
Format : AAC LC
Format/Info : Advanced Audio
Codec ID : mp4a-40-2
Duration : 2 h 44 min
Bit rate mode : Variable
Bit rate : 125 kb/s
Maximum bit rate : 127 kb/s
Channel(s) : 2 channels
Channel layout : L R
Sampling rate : 48.0 kHz
Frame rate : 46.875 FPS (1024 SPF)
Compression mode : Lossy
Stream size : 147 MiB (7%)
Default : Yes
Alternate group : 1

WWE Fastlane 2021

Text #1
ID : 1-CC1
Format : EIA-608
Muxing mode : SCTE 128 / DTVCC Transport
Muxing mode, more info : Muxed in Video #1
Duration : 2 h 44 min
Bit rate mode : Constant
Stream size : 0.00 Byte (0%)
CaptionServiceName : CC1

Text #2
ID : 1-CC3
Format : EIA-608
Muxing mode : SCTE 128 / DTVCC Transport
Muxing mode, more info : Muxed in Video #1
Duration : 2 h 44 min
Bit rate mode : Constant
Stream size : 0.00 Byte (0%)
CaptionServiceName : CC3

Text #3
ID : 1-1
Format : EIA-708
Muxing mode : SCTE 128 / DTVCC Transport
Muxing mode, more info : Muxed in Video #1
Duration : 2 h 44 min
Bit rate mode : Constant
Stream size : 0.00 Byte (0%)

WWE Fastlane 2021 Online

Text #4
ID : 1-2
Format : EIA-708
Muxing mode : SCTE 128 / DTVCC Transport
Muxing mode, more info : Muxed in Video #1
Duration : 2 h 44 min
Bit rate mode : Constant
Stream size : 0.00 Byte (0%)

Text #5
ID : 1-3
Format : EIA-708
Muxing mode : SCTE 128 / DTVCC Transport
Muxing mode, more info : Muxed in Video #1
Duration : 2 h 44 min
Bit rate mode : Constant
Stream size : 0.00 Byte (0%)

Text #6
ID : 1-4
Format : EIA-708
Muxing mode : SCTE 128 / DTVCC Transport
Muxing mode, more info : Muxed in Video #1
Duration : 2 h 44 min
Bit rate mode : Constant
Stream size : 0.00 Byte (0%)

WWE Fastlane 2021

Text #7
ID : 1-5
Format : EIA-708
Muxing mode : SCTE 128 / DTVCC Transport
Muxing mode, more info : Muxed in Video #1
Duration : 2 h 44 min
Bit rate mode : Constant
Stream size : 0.00 Byte (0%)

Text #8
ID : 1-6
Format : EIA-708
Muxing mode : SCTE 128 / DTVCC Transport
Muxing mode, more info : Muxed in Video #1
Duration : 2 h 44 min
Bit rate mode : Constant
Stream size : 0.00 Byte (0%)

WWE Fastlane 2021

Complete name : WWE.Fastlane.2021.PPV.720p.WEB.h264-HEEL.mp4
Format : MPEG-4
Format profile : Base Media
File size : 4.75 GiB
Duration : 2 h 44 min
Overall bit rate : 4 147 kb/s
Law rating : N/A

Video
ID : 1
Format : AVC
Duration : 2 h 44 min
Bit rate : 4 009 kb/s
Width : 1 280 pixels
Height : 720 pixels
Display aspect ratio : 16:9
Frame rate mode : Variable
Frame rate : 30.000 FPS
Minimum frame rate : 29.412 FPS
Maximum frame rate : 30.303 FPS
Color space : YUV
Chroma subsampling : 4:2:0
Bit depth : 8 bits
Scan type : Progressive
Bits/(Pixel*Frame) : 0.145
Stream size : 4.59 GiB (97%)
Codec configuration box : avcC

WWE Fastlane 2021

Audio
ID : 2
Format : AAC LC
Codec ID : mp4a-40-2
Duration : 2 h 44 min
Bit rate mode : Constant
Bit rate : 125 kb/s
Channel(s) : 2 channels
Channel layout : L R
Sampling rate : 48.0 kHz
Frame rate : 46.875 FPS (1024 SPF)
Compression mode : Lossy
Stream size : 147 MiB (3%)
Default : Yes
Alternate group : 1

Text #1
ID : 1-CC1
Format : EIA-608
Muxing mode : SCTE 128 / DTVCC Transport
Muxing mode, more info : Muxed in Video #1
Duration : 2 h 44 min
Bit rate mode : Constant
Stream size : 0.00 Byte (0%)
CaptionServiceName : CC1

Text #2
ID : 1-CC3
Format : EIA-608
Muxing mode : SCTE 128 / DTVCC Transport
Muxing mode, more info : Muxed in Video #1
Duration : 2 h 44 min
Bit rate mode : Constant
Stream size : 0.00 Byte (0%)
CaptionServiceName : CC3

WWE Fastlane 2021

Text #3
ID : 1-1
Format : EIA-708
Muxing mode : SCTE 128 / DTVCC Transport
Muxing mode, more info : Muxed in Video #1
Duration : 2 h 44 min
Bit rate mode : Constant
Stream size : 0.00 Byte (0%)

Text #4
ID : 1-2
Format : EIA-708
Muxing mode : SCTE 128 / DTVCC Transport
Muxing mode, more info : Muxed in Video #1
Duration : 2 h 44 min
Bit rate mode : Constant
Stream size : 0.00 Byte (0%)

WWE Fastlane 2021

Text #5
ID : 1-3
Format : EIA-708
Muxing mode : SCTE 128 / DTVCC Transport
Muxing mode, more info : Muxed in Video #1
Duration : 2 h 44 min
Bit rate mode : Constant
Stream size : 0.00 Byte (0%)

Text #6
ID : 1-4
Format : EIA-708
Muxing mode : SCTE 128 / DTVCC Transport
Muxing mode, more info : Muxed in Video #1
Duration : 2 h 44 min
Bit rate mode : Constant
Stream size : 0.00 Byte (0%)

WWE Fastlane 2021

Text #7
ID : 1-5
Format : EIA-708
Muxing mode : SCTE 128 / DTVCC Transport
Muxing mode, more info : Muxed in Video #1
Duration : 2 h 44 min
Bit rate mode : Constant
Stream size : 0.00 Byte (0%)

Text #8
ID : 1-6
Format : EIA-708
Muxing mode : SCTE 128 / DTVCC Transport
Muxing mode, more info : Muxed in Video #1
Duration : 2 h 44 min
Bit rate mode : Constant
Stream size : 0.00 Byte (0%)

 

 

[collapse]

 

 

https://dx-tv.com/