Watch WWE Fastlane 2021 Online Replay Free 720p

Watch WWE Fastlane 2021 Online Feed Replay Free 720p DX-TV

Watch WWE Fastlane 2021 Online

Watch WWE Fastlane 2021 Online

 

 

 

Download Links with High Speed


Dopapk

 

 

Show Links

 

http://shrt10.com/O3B8Yu

 

[collapse]

 

 

Nitroflare

 

 

Show Links

 

http://shrt10.com/7REtBVM

 

[collapse]

 

 

Rapidgator

 

 

Show Links

 

http://shrt10.com/OgSvTVC

 

[collapse]

 

 

Uploaded

 

 

Show Links

 

http://shrt10.com/Ru61Ie2

 

[collapse]

 

 

Watch online

 

Server 1

 

 

 

 

watch now

 

 

 

 

Server-2

 

 

 

 

WWE Fastlane 2021 Online

 

 

 

|Server-3

 

 

 

 

watch now

 

 

Uploaded By Site DX-TV.com

 

 

Show Info This Show

 

WWE Fastlane 2021 Online

Complete name : WWE.Fastlane.2021.PPV.720p.HEVC–JOKER2K.m4v
Format : MPEG-4
Format profile : Base Media
Codec ID : isom (mp41/avc1)
File size : 4.02 GiB
Duration : 2 h 44 min
Overall bit rate mode : Variable
Overall bit rate : 3 500 kb/s

Video
ID : 2
Format : HEVC
Duration : 2 h 44 min
Bit rate : 3 364 kb/s
Width : 1 280 pixels
Height : 720 pixels
Display aspect ratio : 16:9
Frame rate mode : Variable
Frame rate : 25.000 FPS
Minimum frame rate : 16.667 FPS
Maximum frame rate : 150.502 FPS
Color space : YUV
Chroma subsampling : 4:2:0
Bit depth : 8 bits
Bits/(Pixel*Frame) : 0.146
Stream size : 3.87 GiB (96%)
Language : English
Codec configuration box : hvcC

WWE Fastlane 2021 Online

Audio
ID : 1
Format : AAC LC
Format/Info : Advanced Audio
Codec ID : mp4a-40-2
Duration : 2 h 44 min
Bit rate mode : Variable
Bit rate : 125 kb/s
Maximum bit rate : 202 kb/s
Channel(s) : 2 channels
Channel layout : L R
Sampling rate : 48.0 kHz
Frame rate : 46.875 FPS (1024 SPF)
Compression mode : Lossy
Stream size : 147 MiB (4%)
Language : English

WWE Fastlane 2021 Online

Audio
ID : 1
Format : AAC LC
Format/Info : Advanced Audio
Codec ID : mp4a-40-2
Duration : 2 h 44 min
Bit rate mode : Variable
Bit rate : 125 kb/s
Maximum bit rate : 202 kb/s
Channel(s) : 2 channels
Channel layout : L R
Sampling rate : 48.0 kHz
Frame rate : 46.875 FPS (1024 SPF)
Compression mode : Lossy
Stream size : 147 MiB (4%)
Language : English

 

Audio
ID : 1
Format : AAC LC
Format/Info : Advanced Audio
Codec ID : mp4a-40-2
Duration : 2 h 44 min
Bit rate mode : Variable
Bit rate : 125 kb/s
Maximum bit rate : 202 kb/s
Channel(s) : 2 channels
Channel layout : L R
Sampling rate : 48.0 kHz
Frame rate : 46.875 FPS (1024 SPF)
Compression mode : Lossy
Stream size : 147 MiB (4%)
Language : English

WWE Fastlane 2021 Online

 

[collapse]

 

 

https://dx-tv.com/