WWE clash of champions 2020 Kickoff Full Show Online

Watch WWE clash of champions 2020 Kickoff 720p DX-TV

 

clash of champions 2020 Kickoff

 

 clash of champions 2020 Kickoff

 

WWE clash of champions 2020 Kickoff Full Show Online

 

 

Complete name : WWE clash of champions 2020 Kickoff 720p WEB DX-TV.COM.mp4
Format : MPEG-4
Format profile : Base Media
Codec ID : isom
File size : 1.76 GiB
Duration : 59 min 13 s
Overall bit rate : 4 259 kb/sl

clash of champions 2020 Kickoff

Video
ID : 1
Format : AVC
Codec ID : avc1
Duration : 59 min 13 s
Bit rate : 4 124 kb/s
Width : 1 280 pixels
Height : 720 pixels
Display aspect ratio : 16:9
Frame rate mode : Variable
Frame rate : 30.000 FPS
Minimum frame rate : 29.412 FPS
Maximum frame rate : 90 000.000 FPS
Color space : YUV
Chroma subsampling : 4:2:0
Bit depth : 8 bits
Scan type : Progressive
Bits/(Pixel*Frame) : 0.149
Stream size : 1.71 GiB (97%)

clash of champions 2020 Kickoff

Audio
ID : 2
Format : AAC LC
Format/Info : Advanced
Codec ID : mp4a-40-2
Duration : 59 min 13 s
Bit rate mode : Constant
Bit rate : 125 kb/s
Channel(s) : 2 channels
Channel layout : L R
Sampling rate : 48.0 kHz
Frame rate : 46.875 FPS (1024 SPF)
Compression mode : Lossy
Stream size : 53.1 MiB (3%)
Default : Yes
Alternate group : 1

clash of champions 2020 Kickoff

Text #1
ID : 1-CC1
Format : EIA-608
Muxing mode : SCTE 128 / DTVCC Transport
Muxing mode, more info : Muxed in Video #1
Duration : 59 min 13 s
Bit rate mode : Constant
Stream size : 0.00 Byte (0%)
CaptionServiceName : CC1

Text #2
ID : 1-CC3
Format : EIA-608
Muxing mode : SCTE 128 / DTVCC Transport
Muxing mode, more info : Muxed in Video #1
Duration : 59 min 13 s
Bit rate mode : Constant
Stream size : 0.00 Byte (0%)
CaptionServiceName : CC3

clash of champions 2020 Kickoff

Text #3
ID : 1-1
Format : EIA-708
Muxing mode : SCTE 128 / DTVCC Transport
Muxing mode, more info : Muxed in Video #1
Duration : 59 min 13 s
Bit rate mode : Constant
Stream size : 0.00 Byte (0%)

Text #4
ID : 1-2
Format : EIA-708
Muxing mode : SCTE 128 / DTVCC Transport
Muxing mode, more info : Muxed in Video #1
Duration : 59 min 13 s
Bit rate mode : Constant
Stream size : 0.00 Byte (0%)

clash of champions 2020 Kickoff

Text #5
ID : 1-3
Format : EIA-708
Muxing mode : SCTE 128 / DTVCC Transport
Muxing mode, more info : Muxed in Video #1
Duration : 59 min 13 s
Bit rate mode : Constant
Stream size : 0.00 Byte (0%)

Text #6
ID : 1-5
Format : EIA-708
Muxing mode : SCTE 128 / DTVCC Transport
Muxing mode, more info : Muxed in Video #1
Duration : 59 min 13 s
Bit rate mode : Constant
Stream size : 0.00 Byte (0%)

 

 

 

WWE clash of champions 2020 Kickoff Full Show Online

 

 

 

 

Watch online

 

 

 

 

 

Server 1

 

 

 

 

watch now

 

 

 

 

Server-2

 

 

 

clash of champions 2020 Kickoff

 

 

 

 

Server-3

 

 

 

watch now

 

 

 

 

Uploaded By Site DX-TV.com

 

 

 

 

Download Free Links with normal and high Speed [ more 15 hosts ]  

 

 

 

Http://shrt10.com/GH2MDk
http://shrt10.com/l1JsP
http://shrt10.com/JN6ciuBr
http://shrt10.com/J80UC4
http://shrt10.com/Iz3GTw
http://shrt10.com/GMBuUU2
http://shrt10.com/z3Shqebcz
http://shrt10.com/rpIpZQF
http://shrt10.com/sRaUAvZQL
http://shrt10.com/oRheTG2m
http://shrt10.com/VBl2PMP
http://shrt10.com/mqtAFN7X
http://shrt10.com/9l7GQ

 

 

 

 

Download Links with premium High Speed   

 

 

 

nitroflare.com

 

 

 

rapidgator.net

 

 

 

uploaded.net

 

 

 

uploadgig.com

 

 

 

 

 

dx-tv.com

 

urlfree.net

Leave a Reply

Your email address will not be published. Required fields are marked *

This site uses Akismet to reduce spam. Learn how your comment data is processed.