WWE clash of champions 2020 Full Show Online

Watch WWE clash of champions 2020 Full Show Online DX-TV

 

WWE clash of champions 2020

 

 WWE Clash of Champions 2020

WWE clash of champions 2020 Full Show Online

 

Championship: Drew McIntyre (c) vs Randy Orton [Ambulance Match]

You may have thought that this feud was all done and dusted, but Randy Orton hasn’t yet given up hope of dethroning Drew McIntyre and getting his first WWE Championship in aaaages.

And you know what? We don’t blame him one little bit.

Drew has looked comfortable as WWE Champion, sure, but we’ve sensed something approaching complacency coming into his promos and even in-ring attitude of late.

He was pushing for the Ambulance Match stipulation, but he may well regret it by the time the night ends.

Randy fell short the last time he went toe-to-toe with the big Scottish fella, but he must surely know this will be his last bite at the cherry for a long while, or even forever.

So expect Randy to pull out every last stop to make this one count – and he surely will.

PREDICTION: Randy Orton

WWE clash of champions 2020

WWE Universal Championship: Roman Reigns (c) vs Jey Uso

It finally, finally happened. After about six years of fan moaning, Roman Reigns has fully embraced his dark side, and he even has Paul Heyman in his corner.

It’s only a shame we didn’t get that big reveal in front of a real, live crowd. But these are unprecedented times, and that pull-back/reveal on TV was almost as wonderful.

So here we are. Bad Boy Roman Reigns up against his cousin Jey Uso, who is making a rare bid for solo glory with his brother Jimmy on the shelf with a knee injury.

To be honest, it feels plain odd to see one Uso without the other, and while Jey will likely enjoy his moment alone in the spotlight, we don’t think it will last all that long or be in the least bit successful.

Roman Reigns will continue to stomp his way through the roster for a while yet.

PREDICTION: Roman Reigns

WWE clash of champions 2020

 

Complete name : WWE.Clash.Of.Champions.2020.PPV.WEB.h264-HEEL.mp4
Format : MPEG-4
Format profile : Base Media
Codec ID : isom
File size : 2.13 GiB
Duration : 2 h 58 min
Overall bit rate mode : Variable
Overall bit rate : 1 709 kb/s
Law rating : N/A

WWE clash of champions 2020

Video
ID : 1
Format : AVC
Format/Info : Advanced
Duration : 2 h 58 min
Bit rate mode : Variable
Bit rate : 1 576 kb/s
Maximum bit rate : 1 663 kb/s
Width : 896 pixels
Height : 504 pixels
Display aspect ratio : 16:9
Frame rate mode : Variable
Frame rate : 30.000 FPS 
Standard : NTSC
Color space : YUV
Chroma subsampling : 4:2:0
Bit depth : 8 bits
Scan type : Progressive
Bits/(Pixel*Frame) : 0.116
Stream size : 1.96 GiB (92%)
Color range : Limited
Color primaries : BT.709
Transfer characteristics : BT.709
Matrix coefficients : BT.709
Codec configuration box : avcC

WWE clash of champions 2020

Audio
ID : 2
Format : AAC LC
Format/Info : Advanced
Codec ID : mp4a-40-2
Duration : 2 h 58 min
Bit rate mode : Variable
Bit rate : 125 kb/s
Maximum bit rate : 136 kb/s
Channel(s) : 2 channels
Channel layout : L R
Sampling rate : 48.0 kHz
Frame rate : 46.875 FPS (1024 SPF)
Compression mode : Lossy
Stream size : 160 MiB (7%)
Default : Yes
Alternate group : 1

Text #1
ID : 1-CC1
Format : EIA-608
Muxing mode : SCTE 128 / DTVCC Transport
Muxing mode, more info : Muxed in Video #1
Duration : 2 h 58 min
Bit rate mode : Constant
Stream size : 0.00 Byte (0%)
CaptionServiceName : CC1

WWE clash of champions 2020

Text #2
ID : 1-CC3
Format : EIA-608
Muxing mode : SCTE 128 / DTVCC Transport
Muxing mode, more info : Muxed in Video #1
Duration : 2 h 58 min
Bit rate mode : Constant
Stream size : 0.00 Byte (0%)
CaptionServiceName : CC3

Text #3
ID : 1-1
Format : EIA-708
Muxing mode : SCTE 128 / DTVCC Transport
Muxing mode, more info : Muxed in Video #1
Duration : 2 h 58 min
Bit rate mode : Constant
Stream size : 0.00 Byte (0%)

WWE clash of champions 2020

Text #4
ID : 1-2
Format : EIA-708
Muxing mode : SCTE 128 / DTVCC Transport
Muxing mode, more info : Muxed in Video #1
Duration : 2 h 58 min
Bit rate mode : Constant
Stream size : 0.00 Byte (0%)

Text #5
ID : 1-3
Format : EIA-708
Muxing mode : SCTE 128 / DTVCC Transport
Muxing mode, more info : Muxed in Video #1
Duration : 2 h 58 min
Bit rate mode : Constant
Stream size : 0.00 Byte (0%)

WWE clash of champions 2020

Text #6
ID : 1-4
Format : EIA-708
Muxing mode : SCTE 128 / DTVCC Transport
Muxing mode, more info : Muxed in Video #1
Duration : 2 h 58 min
Bit rate mode : Constant
Stream size : 0.00 Byte (0%)

Text #7
ID : 1-5
Format : EIA-708
Muxing mode : SCTE 128 / DTVCC Transport
Muxing mode, more info : Muxed in Video #1
Duration : 2 h 58 min
Bit rate mode : Constant
Stream size : 0.00 Byte (0%)

WWE clash of champions 2020

Text #8
ID : 1-6
Format : EIA-708
Muxing mode : SCTE 128 / DTVCC Transport
Muxing mode, more info : Muxed in Video #1
Duration : 2 h 58 min
Bit rate mode : Constant
Stream size : 0.00 Byte (0%)

 

 

 

WWE clash of champions 2020 Full Show Online

 

 

 

 

Watch online

 

 

 

 

 

Server 1

 

 

 

 

watch now

 

 

 

 

Server-2

 

 

 

watch now

 

 

 

 

Server-3

 

 

 

WWE clash of champions 2020

 

 

 

 

Uploaded By Site DX-TV.com

 

 

 

 

Download Free Links with normal and high Speed [ more 15 hosts ]  

 

 

 

http://shrt10.com/Ybn9v
http://shrt10.com/oFaLb
http://shrt10.com/mjgqygSl
http://shrt10.com/otR7ky8Z2
http://shrt10.com/XXlJT0xd
http://shrt10.com/cxxmZhe
http://shrt10.com/zjuV1
http://shrt10.com/VjQxZxcyx
http://shrt10.com/2nhqa1
http://shrt10.com/B5cv2qv

 

 

 

 

Download Links with premium High Speed   

 

 

 

nitroflare.com

 

 

 

rapidgator.net

 

 

 

uploaded.net

 

 

 

uploadgig.com

 

 

 

 

 

dx-tv.com

 

urlfree.net

Leave a Reply

Your email address will not be published. Required fields are marked *

This site uses Akismet to reduce spam. Learn how your comment data is processed.