WWE 205 Live 2021 07 09 Online Free Replay

WWE 205 Live 2021 07 09 Online Free Replay DX-TV

WWE 205

 WWE 205

 

 

 

Download Links with High Speed


Dopapk

 

 

Show Links

 

http://shrt10.com/9DiSSqeq

 

[collapse]

 

 

Nitroflare

 

 

Show Links

 

http://shrt10.com/BFQ9w2

 

[collapse]

 

 

Rapidgator

 

 

Show Links

 

http://shrt10.com/SpTNHIzN

 

[collapse]

 

 

Uploaded

 

 

Show Links

 

http://shrt10.com/RDxv9me5

 

[collapse]

 

 

Watch online

 

Server 1

 

 

 

 

watch now

 

 

 

 

Server-2

 

 

 

 

WWE 205

 

 

 

|Server-3

 

 

 

 

watch now

 

 

Uploaded By Site DX-TV.com

 

 

Show Info This Show

 

WWE 205

Complete name : WWE.205.Live.2021.07.09.VOD.Version.1080p.WEB.h264-HEEL.mp4
Format : MPEG-4
Format profile : Base Media
Codec ID : isom
File size : 1.57 GiB
Duration : 28 min 16 s
Overall bit rate mode : Variable
Overall bit rate : 7 929 kb/s

WWE 205

Video
ID : 1
Format : AVC
Format/Info : Advanced Video
Duration : 28 min 16 s
Bit rate : 7 808 kb/s
Width : 1 920 pixels
Height : 1 080 pixels
Display aspect ratio : 16:9
Frame rate mode : Constant
Frame rate : 30.000 FPS
Color space : YUV
Chroma subsampling : 4:2:0
Bit depth : 8 bits
Scan type : Progressive
Bits/(Pixel*Frame) : 0.126
Stream size : 1.53 GiB (97%)

WWE 205

Audio
ID : 2
Format : AAC LC
Format/Info : Advanced Audio
Codec ID : mp4a-40-2
Duration : 28 min 16 s
Bit rate mode : Constant
Bit rate : 192 kb/s
Channel(s) : 2 channels
Channel layout : L R
Sampling rate : 48.0 kHz
Frame rate : 46.875 FPS
Compression mode : Lossy
Stream size : 38.9 MiB (2%)
Default : Yes
Alternate group : 1

Text
ID : 3
Format : Timed Text
Muxing mode : sbtl
Codec ID : tx3g
Duration : 28 min 13 s
Bit rate mode : Variable
Bit rate : 105 b/s
Stream size : 21.8 KiB (0%)
Language : English
Default : Yes
Forced : No
Alternate group : 3

WWE 205

Complete name : WWE.205.Live.2021.07.09.VOD.Version.1080p.WEB.h264-HEEL.mp4
Format : MPEG-4
Format profile : Base Media
Codec ID : isom
File size : 1.57 GiB
Duration : 28 min 16 s
Overall bit rate mode : Variable
Overall bit rate : 7 929 kb/s

WWE 205

Video
ID : 1
Format : AVC
Format/Info : Advanced Video
Duration : 28 min 16 s
Bit rate : 7 808 kb/s
Width : 1 920 pixels
Height : 1 080 pixels
Display aspect ratio : 16:9
Frame rate mode : Constant
Frame rate : 30.000 FPS
Color space : YUV
Chroma subsampling : 4:2:0
Bit depth : 8 bits
Scan type : Progressive
Bits/(Pixel*Frame) : 0.126
Stream size : 1.53 GiB (97%)

WWE 205

Audio
ID : 2
Format : AAC LC
Format/Info : Advanced Audio
Codec ID : mp4a-40-2
Duration : 28 min 16 s
Bit rate mode : Constant
Bit rate : 192 kb/s
Channel(s) : 2 channels
Channel layout : L R
Sampling rate : 48.0 kHz
Frame rate : 46.875 FPS
Compression mode : Lossy
Stream size : 38.9 MiB (2%)
Default : Yes
Alternate group : 1

Text
ID : 3
Format : Timed Text
Muxing mode : sbtl
Codec ID : tx3g
Duration : 28 min 13 s
Bit rate mode : Variable
Bit rate : 105 b/s
Stream size : 21.8 KiB (0%)
Language : English
Default : Yes
Forced : No
Alternate group : 3

WWE 205

Complete name : WWE.205.Live.2021.07.09.VOD.Version.1080p.WEB.h264-HEEL.mp4
Format : MPEG-4
Format profile : Base Media
Codec ID : isom
File size : 1.57 GiB
Duration : 28 min 16 s
Overall bit rate mode : Variable
Overall bit rate : 7 929 kb/s

WWE 205

Video
ID : 1
Format : AVC
Format/Info : Advanced Video
Duration : 28 min 16 s
Bit rate : 7 808 kb/s
Width : 1 920 pixels
Height : 1 080 pixels
Display aspect ratio : 16:9
Frame rate mode : Constant
Frame rate : 30.000 FPS
Color space : YUV
Chroma subsampling : 4:2:0
Bit depth : 8 bits
Scan type : Progressive
Bits/(Pixel*Frame) : 0.126
Stream size : 1.53 GiB (97%)

WWE 205

Audio
ID : 2
Format : AAC LC
Format/Info : Advanced Audio
Codec ID : mp4a-40-2
Duration : 28 min 16 s
Bit rate mode : Constant
Bit rate : 192 kb/s
Channel(s) : 2 channels
Channel layout : L R
Sampling rate : 48.0 kHz
Frame rate : 46.875 FPS
Compression mode : Lossy
Stream size : 38.9 MiB (2%)
Default : Yes
Alternate group : 1

Text
ID : 3
Format : Timed Text
Muxing mode : sbtl
Codec ID : tx3g
Duration : 28 min 13 s
Bit rate mode : Variable
Bit rate : 105 b/s
Stream size : 21.8 KiB (0%)
Language : English
Default : Yes
Forced : No
Alternate group : 3

WWE 205

Complete name : WWE.205.Live.2021.07.09.VOD.Version.1080p.WEB.h264-HEEL.mp4
Format : MPEG-4
Format profile : Base Media
Codec ID : isom
File size : 1.57 GiB
Duration : 28 min 16 s
Overall bit rate mode : Variable
Overall bit rate : 7 929 kb/s

WWE 205

Video
ID : 1
Format : AVC
Format/Info : Advanced Video
Duration : 28 min 16 s
Bit rate : 7 808 kb/s
Width : 1 920 pixels
Height : 1 080 pixels
Display aspect ratio : 16:9
Frame rate mode : Constant
Frame rate : 30.000 FPS
Color space : YUV
Chroma subsampling : 4:2:0
Bit depth : 8 bits
Scan type : Progressive
Bits/(Pixel*Frame) : 0.126
Stream size : 1.53 GiB (97%)

WWE 205

Audio
ID : 2
Format : AAC LC
Format/Info : Advanced Audio
Codec ID : mp4a-40-2
Duration : 28 min 16 s
Bit rate mode : Constant
Bit rate : 192 kb/s
Channel(s) : 2 channels
Channel layout : L R
Sampling rate : 48.0 kHz
Frame rate : 46.875 FPS
Compression mode : Lossy
Stream size : 38.9 MiB (2%)
Default : Yes
Alternate group : 1

Text
ID : 3
Format : Timed Text
Muxing mode : sbtl
Codec ID : tx3g
Duration : 28 min 13 s
Bit rate mode : Variable
Bit rate : 105 b/s
Stream size : 21.8 KiB (0%)
Language : English
Default : Yes
Forced : No
Alternate group : 3

WWE 205

Complete name : WWE.205.Live.2021.07.09.VOD.Version.1080p.WEB.h264-HEEL.mp4
Format : MPEG-4
Format profile : Base Media
Codec ID : isom
File size : 1.57 GiB
Duration : 28 min 16 s
Overall bit rate mode : Variable
Overall bit rate : 7 929 kb/s

WWE 205

Video
ID : 1
Format : AVC
Format/Info : Advanced Video
Duration : 28 min 16 s
Bit rate : 7 808 kb/s
Width : 1 920 pixels
Height : 1 080 pixels
Display aspect ratio : 16:9
Frame rate mode : Constant
Frame rate : 30.000 FPS
Color space : YUV
Chroma subsampling : 4:2:0
Bit depth : 8 bits
Scan type : Progressive
Bits/(Pixel*Frame) : 0.126
Stream size : 1.53 GiB (97%)

WWE 205

Audio
ID : 2
Format : AAC LC
Format/Info : Advanced Audio
Codec ID : mp4a-40-2
Duration : 28 min 16 s
Bit rate mode : Constant
Bit rate : 192 kb/s
Channel(s) : 2 channels
Channel layout : L R
Sampling rate : 48.0 kHz
Frame rate : 46.875 FPS
Compression mode : Lossy
Stream size : 38.9 MiB (2%)
Default : Yes
Alternate group : 1

Text
ID : 3
Format : Timed Text
Muxing mode : sbtl
Codec ID : tx3g
Duration : 28 min 13 s
Bit rate mode : Variable
Bit rate : 105 b/s
Stream size : 21.8 KiB (0%)
Language : English
Default : Yes
Forced : No
Alternate group : 3

WWE 205

Complete name : WWE.205.Live.2021.07.09.VOD.Version.1080p.WEB.h264-HEEL.mp4
Format : MPEG-4
Format profile : Base Media
Codec ID : isom
File size : 1.57 GiB
Duration : 28 min 16 s
Overall bit rate mode : Variable
Overall bit rate : 7 929 kb/s

WWE 205

Video
ID : 1
Format : AVC
Format/Info : Advanced Video
Duration : 28 min 16 s
Bit rate : 7 808 kb/s
Width : 1 920 pixels
Height : 1 080 pixels
Display aspect ratio : 16:9
Frame rate mode : Constant
Frame rate : 30.000 FPS
Color space : YUV
Chroma subsampling : 4:2:0
Bit depth : 8 bits
Scan type : Progressive
Bits/(Pixel*Frame) : 0.126
Stream size : 1.53 GiB (97%)

WWE 205

Audio
ID : 2
Format : AAC LC
Format/Info : Advanced Audio
Codec ID : mp4a-40-2
Duration : 28 min 16 s
Bit rate mode : Constant
Bit rate : 192 kb/s
Channel(s) : 2 channels
Channel layout : L R
Sampling rate : 48.0 kHz
Frame rate : 46.875 FPS
Compression mode : Lossy
Stream size : 38.9 MiB (2%)
Default : Yes
Alternate group : 1

Text
ID : 3
Format : Timed Text
Muxing mode : sbtl
Codec ID : tx3g
Duration : 28 min 13 s
Bit rate mode : Variable
Bit rate : 105 b/s
Stream size : 21.8 KiB (0%)
Language : English
Default : Yes
Forced : No
Alternate group : 3

WWE 205

Complete name : WWE.205.Live.2021.07.09.VOD.Version.1080p.WEB.h264-HEEL.mp4
Format : MPEG-4
Format profile : Base Media
Codec ID : isom
File size : 1.57 GiB
Duration : 28 min 16 s
Overall bit rate mode : Variable
Overall bit rate : 7 929 kb/s

WWE 205

Video
ID : 1
Format : AVC
Format/Info : Advanced Video
Duration : 28 min 16 s
Bit rate : 7 808 kb/s
Width : 1 920 pixels
Height : 1 080 pixels
Display aspect ratio : 16:9
Frame rate mode : Constant
Frame rate : 30.000 FPS
Color space : YUV
Chroma subsampling : 4:2:0
Bit depth : 8 bits
Scan type : Progressive
Bits/(Pixel*Frame) : 0.126
Stream size : 1.53 GiB (97%)

WWE 205

Audio
ID : 2
Format : AAC LC
Format/Info : Advanced Audio
Codec ID : mp4a-40-2
Duration : 28 min 16 s
Bit rate mode : Constant
Bit rate : 192 kb/s
Channel(s) : 2 channels
Channel layout : L R
Sampling rate : 48.0 kHz
Frame rate : 46.875 FPS
Compression mode : Lossy
Stream size : 38.9 MiB (2%)
Default : Yes
Alternate group : 1

Text
ID : 3
Format : Timed Text
Muxing mode : sbtl
Codec ID : tx3g
Duration : 28 min 13 s
Bit rate mode : Variable
Bit rate : 105 b/s
Stream size : 21.8 KiB (0%)
Language : English
Default : Yes
Forced : No
Alternate group : 3

WWE 205

Complete name : WWE.205.Live.2021.07.09.VOD.Version.1080p.WEB.h264-HEEL.mp4
Format : MPEG-4
Format profile : Base Media
Codec ID : isom
File size : 1.57 GiB
Duration : 28 min 16 s
Overall bit rate mode : Variable
Overall bit rate : 7 929 kb/s

WWE 205

Video
ID : 1
Format : AVC
Format/Info : Advanced Video
Duration : 28 min 16 s
Bit rate : 7 808 kb/s
Width : 1 920 pixels
Height : 1 080 pixels
Display aspect ratio : 16:9
Frame rate mode : Constant
Frame rate : 30.000 FPS
Color space : YUV
Chroma subsampling : 4:2:0
Bit depth : 8 bits
Scan type : Progressive
Bits/(Pixel*Frame) : 0.126
Stream size : 1.53 GiB (97%)

WWE 205

Audio
ID : 2
Format : AAC LC
Format/Info : Advanced Audio
Codec ID : mp4a-40-2
Duration : 28 min 16 s
Bit rate mode : Constant
Bit rate : 192 kb/s
Channel(s) : 2 channels
Channel layout : L R
Sampling rate : 48.0 kHz
Frame rate : 46.875 FPS
Compression mode : Lossy
Stream size : 38.9 MiB (2%)
Default : Yes
Alternate group : 1

Text
ID : 3
Format : Timed Text
Muxing mode : sbtl
Codec ID : tx3g
Duration : 28 min 13 s
Bit rate mode : Variable
Bit rate : 105 b/s
Stream size : 21.8 KiB (0%)
Language : English
Default : Yes
Forced : No
Alternate group : 3

WWE 205

Complete name : WWE.205.Live.2021.07.09.VOD.Version.1080p.WEB.h264-HEEL.mp4
Format : MPEG-4
Format profile : Base Media
Codec ID : isom
File size : 1.57 GiB
Duration : 28 min 16 s
Overall bit rate mode : Variable
Overall bit rate : 7 929 kb/s

WWE 205

Video
ID : 1
Format : AVC
Format/Info : Advanced Video
Duration : 28 min 16 s
Bit rate : 7 808 kb/s
Width : 1 920 pixels
Height : 1 080 pixels
Display aspect ratio : 16:9
Frame rate mode : Constant
Frame rate : 30.000 FPS
Color space : YUV
Chroma subsampling : 4:2:0
Bit depth : 8 bits
Scan type : Progressive
Bits/(Pixel*Frame) : 0.126
Stream size : 1.53 GiB (97%)

WWE 205

Audio
ID : 2
Format : AAC LC
Format/Info : Advanced Audio
Codec ID : mp4a-40-2
Duration : 28 min 16 s
Bit rate mode : Constant
Bit rate : 192 kb/s
Channel(s) : 2 channels
Channel layout : L R
Sampling rate : 48.0 kHz
Frame rate : 46.875 FPS
Compression mode : Lossy
Stream size : 38.9 MiB (2%)
Default : Yes
Alternate group : 1

Text
ID : 3
Format : Timed Text
Muxing mode : sbtl
Codec ID : tx3g
Duration : 28 min 13 s
Bit rate mode : Variable
Bit rate : 105 b/s
Stream size : 21.8 KiB (0%)
Language : English
Default : Yes
Forced : No
Alternate group : 3

WWE 205

Complete name : WWE.205.Live.2021.07.09.VOD.Version.1080p.WEB.h264-HEEL.mp4
Format : MPEG-4
Format profile : Base Media
Codec ID : isom
File size : 1.57 GiB
Duration : 28 min 16 s
Overall bit rate mode : Variable
Overall bit rate : 7 929 kb/s

WWE 205

Video
ID : 1
Format : AVC
Format/Info : Advanced Video
Duration : 28 min 16 s
Bit rate : 7 808 kb/s
Width : 1 920 pixels
Height : 1 080 pixels
Display aspect ratio : 16:9
Frame rate mode : Constant
Frame rate : 30.000 FPS
Color space : YUV
Chroma subsampling : 4:2:0
Bit depth : 8 bits
Scan type : Progressive
Bits/(Pixel*Frame) : 0.126
Stream size : 1.53 GiB (97%)

WWE 205

Audio
ID : 2
Format : AAC LC
Format/Info : Advanced Audio
Codec ID : mp4a-40-2
Duration : 28 min 16 s
Bit rate mode : Constant
Bit rate : 192 kb/s
Channel(s) : 2 channels
Channel layout : L R
Sampling rate : 48.0 kHz
Frame rate : 46.875 FPS
Compression mode : Lossy
Stream size : 38.9 MiB (2%)
Default : Yes
Alternate group : 1

Text
ID : 3
Format : Timed Text
Muxing mode : sbtl
Codec ID : tx3g
Duration : 28 min 13 s
Bit rate mode : Variable
Bit rate : 105 b/s
Stream size : 21.8 KiB (0%)
Language : English
Default : Yes
Forced : No
Alternate group : 3

WWE 205

Complete name : WWE.205.Live.2021.07.09.VOD.Version.1080p.WEB.h264-HEEL.mp4
Format : MPEG-4
Format profile : Base Media
Codec ID : isom
File size : 1.57 GiB
Duration : 28 min 16 s
Overall bit rate mode : Variable
Overall bit rate : 7 929 kb/s

WWE 205

Video
ID : 1
Format : AVC
Format/Info : Advanced Video
Duration : 28 min 16 s
Bit rate : 7 808 kb/s
Width : 1 920 pixels
Height : 1 080 pixels
Display aspect ratio : 16:9
Frame rate mode : Constant
Frame rate : 30.000 FPS
Color space : YUV
Chroma subsampling : 4:2:0
Bit depth : 8 bits
Scan type : Progressive
Bits/(Pixel*Frame) : 0.126
Stream size : 1.53 GiB (97%)

WWE 205

Audio
ID : 2
Format : AAC LC
Format/Info : Advanced Audio
Codec ID : mp4a-40-2
Duration : 28 min 16 s
Bit rate mode : Constant
Bit rate : 192 kb/s
Channel(s) : 2 channels
Channel layout : L R
Sampling rate : 48.0 kHz
Frame rate : 46.875 FPS
Compression mode : Lossy
Stream size : 38.9 MiB (2%)
Default : Yes
Alternate group : 1

Text
ID : 3
Format : Timed Text
Muxing mode : sbtl
Codec ID : tx3g
Duration : 28 min 13 s
Bit rate mode : Variable
Bit rate : 105 b/s
Stream size : 21.8 KiB (0%)
Language : English
Default : Yes
Forced : No
Alternate group : 3

WWE 205

Complete name : WWE.205.Live.2021.07.09.VOD.Version.1080p.WEB.h264-HEEL.mp4
Format : MPEG-4
Format profile : Base Media
Codec ID : isom
File size : 1.57 GiB
Duration : 28 min 16 s
Overall bit rate mode : Variable
Overall bit rate : 7 929 kb/s

WWE 205

Video
ID : 1
Format : AVC
Format/Info : Advanced Video
Duration : 28 min 16 s
Bit rate : 7 808 kb/s
Width : 1 920 pixels
Height : 1 080 pixels
Display aspect ratio : 16:9
Frame rate mode : Constant
Frame rate : 30.000 FPS
Color space : YUV
Chroma subsampling : 4:2:0
Bit depth : 8 bits
Scan type : Progressive
Bits/(Pixel*Frame) : 0.126
Stream size : 1.53 GiB (97%)

WWE 205

Audio
ID : 2
Format : AAC LC
Format/Info : Advanced Audio
Codec ID : mp4a-40-2
Duration : 28 min 16 s
Bit rate mode : Constant
Bit rate : 192 kb/s
Channel(s) : 2 channels
Channel layout : L R
Sampling rate : 48.0 kHz
Frame rate : 46.875 FPS
Compression mode : Lossy
Stream size : 38.9 MiB (2%)
Default : Yes
Alternate group : 1

Text
ID : 3
Format : Timed Text
Muxing mode : sbtl
Codec ID : tx3g
Duration : 28 min 13 s
Bit rate mode : Variable
Bit rate : 105 b/s
Stream size : 21.8 KiB (0%)
Language : English
Default : Yes
Forced : No
Alternate group : 3

WWE 205

Complete name : WWE.205.Live.2021.07.09.VOD.Version.1080p.WEB.h264-HEEL.mp4
Format : MPEG-4
Format profile : Base Media
Codec ID : isom
File size : 1.57 GiB
Duration : 28 min 16 s
Overall bit rate mode : Variable
Overall bit rate : 7 929 kb/s

WWE 205

Video
ID : 1
Format : AVC
Format/Info : Advanced Video
Duration : 28 min 16 s
Bit rate : 7 808 kb/s
Width : 1 920 pixels
Height : 1 080 pixels
Display aspect ratio : 16:9
Frame rate mode : Constant
Frame rate : 30.000 FPS
Color space : YUV
Chroma subsampling : 4:2:0
Bit depth : 8 bits
Scan type : Progressive
Bits/(Pixel*Frame) : 0.126
Stream size : 1.53 GiB (97%)

WWE 205

Audio
ID : 2
Format : AAC LC
Format/Info : Advanced Audio
Codec ID : mp4a-40-2
Duration : 28 min 16 s
Bit rate mode : Constant
Bit rate : 192 kb/s
Channel(s) : 2 channels
Channel layout : L R
Sampling rate : 48.0 kHz
Frame rate : 46.875 FPS
Compression mode : Lossy
Stream size : 38.9 MiB (2%)
Default : Yes
Alternate group : 1

Text
ID : 3
Format : Timed Text
Muxing mode : sbtl
Codec ID : tx3g
Duration : 28 min 13 s
Bit rate mode : Variable
Bit rate : 105 b/s
Stream size : 21.8 KiB (0%)
Language : English
Default : Yes
Forced : No
Alternate group : 3

WWE 205

Complete name : WWE.205.Live.2021.07.09.VOD.Version.1080p.WEB.h264-HEEL.mp4
Format : MPEG-4
Format profile : Base Media
Codec ID : isom
File size : 1.57 GiB
Duration : 28 min 16 s
Overall bit rate mode : Variable
Overall bit rate : 7 929 kb/s

WWE 205

Video
ID : 1
Format : AVC
Format/Info : Advanced Video
Duration : 28 min 16 s
Bit rate : 7 808 kb/s
Width : 1 920 pixels
Height : 1 080 pixels
Display aspect ratio : 16:9
Frame rate mode : Constant
Frame rate : 30.000 FPS
Color space : YUV
Chroma subsampling : 4:2:0
Bit depth : 8 bits
Scan type : Progressive
Bits/(Pixel*Frame) : 0.126
Stream size : 1.53 GiB (97%)

WWE 205

Audio
ID : 2
Format : AAC LC
Format/Info : Advanced Audio
Codec ID : mp4a-40-2
Duration : 28 min 16 s
Bit rate mode : Constant
Bit rate : 192 kb/s
Channel(s) : 2 channels
Channel layout : L R
Sampling rate : 48.0 kHz
Frame rate : 46.875 FPS
Compression mode : Lossy
Stream size : 38.9 MiB (2%)
Default : Yes
Alternate group : 1

Text
ID : 3
Format : Timed Text
Muxing mode : sbtl
Codec ID : tx3g
Duration : 28 min 13 s
Bit rate mode : Variable
Bit rate : 105 b/s
Stream size : 21.8 KiB (0%)
Language : English
Default : Yes
Forced : No
Alternate group : 3

WWE 205

Complete name : WWE.205.Live.2021.07.09.VOD.Version.1080p.WEB.h264-HEEL.mp4
Format : MPEG-4
Format profile : Base Media
Codec ID : isom
File size : 1.57 GiB
Duration : 28 min 16 s
Overall bit rate mode : Variable
Overall bit rate : 7 929 kb/s

WWE 205

Video
ID : 1
Format : AVC
Format/Info : Advanced Video
Duration : 28 min 16 s
Bit rate : 7 808 kb/s
Width : 1 920 pixels
Height : 1 080 pixels
Display aspect ratio : 16:9
Frame rate mode : Constant
Frame rate : 30.000 FPS
Color space : YUV
Chroma subsampling : 4:2:0
Bit depth : 8 bits
Scan type : Progressive
Bits/(Pixel*Frame) : 0.126
Stream size : 1.53 GiB (97%)

WWE 205

Audio
ID : 2
Format : AAC LC
Format/Info : Advanced Audio
Codec ID : mp4a-40-2
Duration : 28 min 16 s
Bit rate mode : Constant
Bit rate : 192 kb/s
Channel(s) : 2 channels
Channel layout : L R
Sampling rate : 48.0 kHz
Frame rate : 46.875 FPS
Compression mode : Lossy
Stream size : 38.9 MiB (2%)
Default : Yes
Alternate group : 1

Text
ID : 3
Format : Timed Text
Muxing mode : sbtl
Codec ID : tx3g
Duration : 28 min 13 s
Bit rate mode : Variable
Bit rate : 105 b/s
Stream size : 21.8 KiB (0%)
Language : English
Default : Yes
Forced : No
Alternate group : 3

WWE 205

Complete name : WWE.205.Live.2021.07.09.VOD.Version.1080p.WEB.h264-HEEL.mp4
Format : MPEG-4
Format profile : Base Media
Codec ID : isom
File size : 1.57 GiB
Duration : 28 min 16 s
Overall bit rate mode : Variable
Overall bit rate : 7 929 kb/s

WWE 205

Video
ID : 1
Format : AVC
Format/Info : Advanced Video
Duration : 28 min 16 s
Bit rate : 7 808 kb/s
Width : 1 920 pixels
Height : 1 080 pixels
Display aspect ratio : 16:9
Frame rate mode : Constant
Frame rate : 30.000 FPS
Color space : YUV
Chroma subsampling : 4:2:0
Bit depth : 8 bits
Scan type : Progressive
Bits/(Pixel*Frame) : 0.126
Stream size : 1.53 GiB (97%)

WWE 205

Audio
ID : 2
Format : AAC LC
Format/Info : Advanced Audio
Codec ID : mp4a-40-2
Duration : 28 min 16 s
Bit rate mode : Constant
Bit rate : 192 kb/s
Channel(s) : 2 channels
Channel layout : L R
Sampling rate : 48.0 kHz
Frame rate : 46.875 FPS
Compression mode : Lossy
Stream size : 38.9 MiB (2%)
Default : Yes
Alternate group : 1

Text
ID : 3
Format : Timed Text
Muxing mode : sbtl
Codec ID : tx3g
Duration : 28 min 13 s
Bit rate mode : Variable
Bit rate : 105 b/s
Stream size : 21.8 KiB (0%)
Language : English
Default : Yes
Forced : No
Alternate group : 3

WWE 205

Complete name : WWE.205.Live.2021.07.09.VOD.Version.1080p.WEB.h264-HEEL.mp4
Format : MPEG-4
Format profile : Base Media
Codec ID : isom
File size : 1.57 GiB
Duration : 28 min 16 s
Overall bit rate mode : Variable
Overall bit rate : 7 929 kb/s

WWE 205

Video
ID : 1
Format : AVC
Format/Info : Advanced Video
Duration : 28 min 16 s
Bit rate : 7 808 kb/s
Width : 1 920 pixels
Height : 1 080 pixels
Display aspect ratio : 16:9
Frame rate mode : Constant
Frame rate : 30.000 FPS
Color space : YUV
Chroma subsampling : 4:2:0
Bit depth : 8 bits
Scan type : Progressive
Bits/(Pixel*Frame) : 0.126
Stream size : 1.53 GiB (97%)

WWE 205

Audio
ID : 2
Format : AAC LC
Format/Info : Advanced Audio
Codec ID : mp4a-40-2
Duration : 28 min 16 s
Bit rate mode : Constant
Bit rate : 192 kb/s
Channel(s) : 2 channels
Channel layout : L R
Sampling rate : 48.0 kHz
Frame rate : 46.875 FPS
Compression mode : Lossy
Stream size : 38.9 MiB (2%)
Default : Yes
Alternate group : 1

Text
ID : 3
Format : Timed Text
Muxing mode : sbtl
Codec ID : tx3g
Duration : 28 min 13 s
Bit rate mode : Variable
Bit rate : 105 b/s
Stream size : 21.8 KiB (0%)
Language : English
Default : Yes
Forced : No
Alternate group : 3

WWE 205

 

[collapse]

 

 

https://dx-tv.com/

Leave a Reply

Your email address will not be published. Required fields are marked *

This site uses Akismet to reduce spam. Learn how your comment data is processed.