TJPW Online Free 2021 07 10 Dont Miss The Signs 1080p  Replay DX-TV

TJPW Online Free

TJPW Online Free

 

 

 

Download Links with premium High Speed


Dopapk

 

 

Show Links

 

http://shrt10.com/LWWaTCeXD
http://shrt10.com/4Xmjv9ox
http://shrt10.com/fq6J7

 

[collapse]

 

 

Nitroflare

 

 

Show Links

 

http://shrt10.com/uRzzefg
http://shrt10.com/KmdTu
http://shrt10.com/SPOteU

 

[collapse]

 

 

Rapidgator

 

 

Show Links

 

http://shrt10.com/sw3uCjA
http://shrt10.com/sFZgLp
http://shrt10.com/gGeK0No

 

[collapse]

 

 

Uploaded

 

 

Show Links

 

http://shrt10.com/LoVacgD0
http://shrt10.com/ONb9rxt

 

[collapse]

 

 

Watch online

 

Server 1

 

 

 

 

watch now

 

 

 

 

Server-2

 

 

 

 

TJPW Online Free

 

 

 

|Server-3

 

 

 

 

watch now

 

 

Uploaded By Site DX-TV.com

 

 

Show Info This Show

 

TJPW Online Free

Complete name : Tokyo.Joshi.Pro.2021.07.10.Dont.Miss.The.Signs.720p.WEB.h264-LATE.mkv
Format : Matroska
Format version : Version 4
File size : 2.50 GiB
Duration : 1 h 42 min
Overall bit rate mode : Variable
Overall bit rate : 3 485 kb/s

Video
ID : 1
Format : AVC
Format/Info : Advanced Video
Duration : 1 h 42 min
Bit rate mode : Variable
Bit rate : 3 293 kb/s
Maximum bit rate : 8 000 kb/s
Width : 1 280 pixels
Height : 720 pixels
Display aspect ratio : 16:9
Frame rate mode : Constant
Frame rate : 29.970 (30000/1001) FPS
Color space : YUV
Chroma subsampling : 4:2:0
Bit depth : 8 bits
Scan type : Progressive
Bits/(Pixel*Frame) : 0.119
Stream size : 2.37 GiB
Default : Yes
Forced : No
Color range : Limited
Color primaries : BT.709
Transfer characteristics : BT.709
Matrix coefficients : BT.709

TJPW Online Free

Audio
ID : 2
Format : AAC LC
Format/Info : Advanced Audio
Codec ID : A_AAC-2
Duration : 1 h 42 min
Bit rate : 192 kb/s
Channel(s) : 2 channels
Channel layout : L R
Sampling rate : 48.0 kHz
Frame rate : 46.875 FPS
Compression mode : Lossy
Delay relative to video : 14 ms
Stream size : 139 MiB (5%)
Default : Yes
Forced : No

Complete name : Tokyo.Joshi.Pro.2021.07.10.Dont.Miss.The.Signs.1080p.WEB.h264-LATE.mkv
Format : Matroska
Format version : Version 4
File size : 6.01 GiB
Duration : 1 h 42 min
Overall bit rate mode : Variable
Overall bit rate : 8 370 kb/s

TJPW Online Free

Video
ID : 1
Format : AVC
Format/Info : Advanced Video
Duration : 1 h 42 min
Bit rate mode : Variable
Bit rate : 7 987 kb/s
Maximum bit rate : 18.0 Mb/s
Width : 1 920 pixels
Height : 1 080 pixels
Display aspect ratio : 16:9
Frame rate mode : Constant
Frame rate : 29.970 (30000/1001) FPS
Color space : YUV
Chroma subsampling : 4:2:0
Bit depth : 8 bits
Scan type : Progressive
Bits/(Pixel*Frame) : 0.129
Stream size : 5.74 GiB (95%)
Default : Yes
Forced : No
Color range : Limited
Color primaries : BT.709
Transfer characteristics : BT.709
Matrix coefficients : BT.709

TJPW Online Free

Audio
ID : 2
Format : AAC LC
Format/Info : Advanced Audio
Codec ID : A_AAC-2
Duration : 1 h 42 min
Bit rate : 384 kb/s
Channel(s) : 2 channels
Channel layout : L R
Sampling rate : 48.0 kHz
Frame rate : 46.875 FPS
Compression mode : Lossy
Delay relative to video : 14 ms
Stream size : 281 MiB (5%)
Default : Yes
Forced : No

Complete name : Tokyo.Joshi.Pro.2021.07.10.Dont.Miss.The.Signs.WEB.h264-LATE.mkv
Format : Matroska
Format version : Version 4
File size : 1.16 GiB
Duration : 1 h 42 min
Overall bit rate mode : Variable
Overall bit rate : 1 619 kb/s

TJPW Online Free

Video
ID : 1
Format : AVC
Format/Info : Advanced Video
Duration : 1 h 42 min
Bit rate mode : Variable
Bit rate : 1 491 kb/s
Maximum bit rate : 4 000 kb/s
Width : 960 pixels
Height : 540 pixels
Display aspect ratio : 16:9
Frame rate mode : Constant
Frame rate : 29.970 (30000/1001) FPS
Color space : YUV
Chroma subsampling : 4:2:0
Bit depth : 8 bits
Scan type : Progressive
Bits/(Pixel*Frame) : 0.096
Stream size : 1.07 GiB (92%)
Default : Yes
Forced : No
Color range : Limited
Color primaries : BT.709
Transfer characteristics : BT.709
Matrix coefficients : BT.709

TJPW Online Free

Audio
ID : 2
Format : AAC LC
Format/Info : Advanced Audio
Codec ID : A_AAC-2
Duration : 1 h 42 min
Bit rate : 125 kb/s
Channel(s) : 2 channels
Channel layout : L R
Sampling rate : 48.0 kHz
Frame rate : 46.875 FPS
Compression mode : Lossy
Delay relative to video : 14 ms
Stream size : 92.2 MiB (8%)
Default : Yes
Forced : No

TJPW Online Free

Complete name : Tokyo.Joshi.Pro.2021.07.10.Dont.Miss.The.Signs.720p.WEB.h264-LATE.mkv
Format : Matroska
Format version : Version 4
File size : 2.50 GiB
Duration : 1 h 42 min
Overall bit rate mode : Variable
Overall bit rate : 3 485 kb/s

Video
ID : 1
Format : AVC
Format/Info : Advanced Video
Duration : 1 h 42 min
Bit rate mode : Variable
Bit rate : 3 293 kb/s
Maximum bit rate : 8 000 kb/s
Width : 1 280 pixels
Height : 720 pixels
Display aspect ratio : 16:9
Frame rate mode : Constant
Frame rate : 29.970 (30000/1001) FPS
Color space : YUV
Chroma subsampling : 4:2:0
Bit depth : 8 bits
Scan type : Progressive
Bits/(Pixel*Frame) : 0.119
Stream size : 2.37 GiB
Default : Yes
Forced : No
Color range : Limited
Color primaries : BT.709
Transfer characteristics : BT.709
Matrix coefficients : BT.709

TJPW Online Free

Audio
ID : 2
Format : AAC LC
Format/Info : Advanced Audio
Codec ID : A_AAC-2
Duration : 1 h 42 min
Bit rate : 192 kb/s
Channel(s) : 2 channels
Channel layout : L R
Sampling rate : 48.0 kHz
Frame rate : 46.875 FPS
Compression mode : Lossy
Delay relative to video : 14 ms
Stream size : 139 MiB (5%)
Default : Yes
Forced : No

Complete name : Tokyo.Joshi.Pro.2021.07.10.Dont.Miss.The.Signs.1080p.WEB.h264-LATE.mkv
Format : Matroska
Format version : Version 4
File size : 6.01 GiB
Duration : 1 h 42 min
Overall bit rate mode : Variable
Overall bit rate : 8 370 kb/s

TJPW Online Free

Video
ID : 1
Format : AVC
Format/Info : Advanced Video
Duration : 1 h 42 min
Bit rate mode : Variable
Bit rate : 7 987 kb/s
Maximum bit rate : 18.0 Mb/s
Width : 1 920 pixels
Height : 1 080 pixels
Display aspect ratio : 16:9
Frame rate mode : Constant
Frame rate : 29.970 (30000/1001) FPS
Color space : YUV
Chroma subsampling : 4:2:0
Bit depth : 8 bits
Scan type : Progressive
Bits/(Pixel*Frame) : 0.129
Stream size : 5.74 GiB (95%)
Default : Yes
Forced : No
Color range : Limited
Color primaries : BT.709
Transfer characteristics : BT.709
Matrix coefficients : BT.709

TJPW Online Free

Audio
ID : 2
Format : AAC LC
Format/Info : Advanced Audio
Codec ID : A_AAC-2
Duration : 1 h 42 min
Bit rate : 384 kb/s
Channel(s) : 2 channels
Channel layout : L R
Sampling rate : 48.0 kHz
Frame rate : 46.875 FPS
Compression mode : Lossy
Delay relative to video : 14 ms
Stream size : 281 MiB (5%)
Default : Yes
Forced : No

Complete name : Tokyo.Joshi.Pro.2021.07.10.Dont.Miss.The.Signs.WEB.h264-LATE.mkv
Format : Matroska
Format version : Version 4
File size : 1.16 GiB
Duration : 1 h 42 min
Overall bit rate mode : Variable
Overall bit rate : 1 619 kb/s

TJPW Online Free

Video
ID : 1
Format : AVC
Format/Info : Advanced Video
Duration : 1 h 42 min
Bit rate mode : Variable
Bit rate : 1 491 kb/s
Maximum bit rate : 4 000 kb/s
Width : 960 pixels
Height : 540 pixels
Display aspect ratio : 16:9
Frame rate mode : Constant
Frame rate : 29.970 (30000/1001) FPS
Color space : YUV
Chroma subsampling : 4:2:0
Bit depth : 8 bits
Scan type : Progressive
Bits/(Pixel*Frame) : 0.096
Stream size : 1.07 GiB (92%)
Default : Yes
Forced : No
Color range : Limited
Color primaries : BT.709
Transfer characteristics : BT.709
Matrix coefficients : BT.709

TJPW Online Free

Audio
ID : 2
Format : AAC LC
Format/Info : Advanced Audio
Codec ID : A_AAC-2
Duration : 1 h 42 min
Bit rate : 125 kb/s
Channel(s) : 2 channels
Channel layout : L R
Sampling rate : 48.0 kHz
Frame rate : 46.875 FPS
Compression mode : Lossy
Delay relative to video : 14 ms
Stream size : 92.2 MiB (8%)
Default : Yes
Forced : No

TJPW Online Free

Complete name : Tokyo.Joshi.Pro.2021.07.10.Dont.Miss.The.Signs.720p.WEB.h264-LATE.mkv
Format : Matroska
Format version : Version 4
File size : 2.50 GiB
Duration : 1 h 42 min
Overall bit rate mode : Variable
Overall bit rate : 3 485 kb/s

Video
ID : 1
Format : AVC
Format/Info : Advanced Video
Duration : 1 h 42 min
Bit rate mode : Variable
Bit rate : 3 293 kb/s
Maximum bit rate : 8 000 kb/s
Width : 1 280 pixels
Height : 720 pixels
Display aspect ratio : 16:9
Frame rate mode : Constant
Frame rate : 29.970 (30000/1001) FPS
Color space : YUV
Chroma subsampling : 4:2:0
Bit depth : 8 bits
Scan type : Progressive
Bits/(Pixel*Frame) : 0.119
Stream size : 2.37 GiB
Default : Yes
Forced : No
Color range : Limited
Color primaries : BT.709
Transfer characteristics : BT.709
Matrix coefficients : BT.709

TJPW Online Free

Audio
ID : 2
Format : AAC LC
Format/Info : Advanced Audio
Codec ID : A_AAC-2
Duration : 1 h 42 min
Bit rate : 192 kb/s
Channel(s) : 2 channels
Channel layout : L R
Sampling rate : 48.0 kHz
Frame rate : 46.875 FPS
Compression mode : Lossy
Delay relative to video : 14 ms
Stream size : 139 MiB (5%)
Default : Yes
Forced : No

Complete name : Tokyo.Joshi.Pro.2021.07.10.Dont.Miss.The.Signs.1080p.WEB.h264-LATE.mkv
Format : Matroska
Format version : Version 4
File size : 6.01 GiB
Duration : 1 h 42 min
Overall bit rate mode : Variable
Overall bit rate : 8 370 kb/s

TJPW Online Free

Video
ID : 1
Format : AVC
Format/Info : Advanced Video
Duration : 1 h 42 min
Bit rate mode : Variable
Bit rate : 7 987 kb/s
Maximum bit rate : 18.0 Mb/s
Width : 1 920 pixels
Height : 1 080 pixels
Display aspect ratio : 16:9
Frame rate mode : Constant
Frame rate : 29.970 (30000/1001) FPS
Color space : YUV
Chroma subsampling : 4:2:0
Bit depth : 8 bits
Scan type : Progressive
Bits/(Pixel*Frame) : 0.129
Stream size : 5.74 GiB (95%)
Default : Yes
Forced : No
Color range : Limited
Color primaries : BT.709
Transfer characteristics : BT.709
Matrix coefficients : BT.709

TJPW Online Free

Audio
ID : 2
Format : AAC LC
Format/Info : Advanced Audio
Codec ID : A_AAC-2
Duration : 1 h 42 min
Bit rate : 384 kb/s
Channel(s) : 2 channels
Channel layout : L R
Sampling rate : 48.0 kHz
Frame rate : 46.875 FPS
Compression mode : Lossy
Delay relative to video : 14 ms
Stream size : 281 MiB (5%)
Default : Yes
Forced : No

Complete name : Tokyo.Joshi.Pro.2021.07.10.Dont.Miss.The.Signs.WEB.h264-LATE.mkv
Format : Matroska
Format version : Version 4
File size : 1.16 GiB
Duration : 1 h 42 min
Overall bit rate mode : Variable
Overall bit rate : 1 619 kb/s

TJPW Online Free

Video
ID : 1
Format : AVC
Format/Info : Advanced Video
Duration : 1 h 42 min
Bit rate mode : Variable
Bit rate : 1 491 kb/s
Maximum bit rate : 4 000 kb/s
Width : 960 pixels
Height : 540 pixels
Display aspect ratio : 16:9
Frame rate mode : Constant
Frame rate : 29.970 (30000/1001) FPS
Color space : YUV
Chroma subsampling : 4:2:0
Bit depth : 8 bits
Scan type : Progressive
Bits/(Pixel*Frame) : 0.096
Stream size : 1.07 GiB (92%)
Default : Yes
Forced : No
Color range : Limited
Color primaries : BT.709
Transfer characteristics : BT.709
Matrix coefficients : BT.709

TJPW Online Free

Audio
ID : 2
Format : AAC LC
Format/Info : Advanced Audio
Codec ID : A_AAC-2
Duration : 1 h 42 min
Bit rate : 125 kb/s
Channel(s) : 2 channels
Channel layout : L R
Sampling rate : 48.0 kHz
Frame rate : 46.875 FPS
Compression mode : Lossy
Delay relative to video : 14 ms
Stream size : 92.2 MiB (8%)
Default : Yes
Forced : No

TJPW Online Free

Complete name : Tokyo.Joshi.Pro.2021.07.10.Dont.Miss.The.Signs.720p.WEB.h264-LATE.mkv
Format : Matroska
Format version : Version 4
File size : 2.50 GiB
Duration : 1 h 42 min
Overall bit rate mode : Variable
Overall bit rate : 3 485 kb/s

Video
ID : 1
Format : AVC
Format/Info : Advanced Video
Duration : 1 h 42 min
Bit rate mode : Variable
Bit rate : 3 293 kb/s
Maximum bit rate : 8 000 kb/s
Width : 1 280 pixels
Height : 720 pixels
Display aspect ratio : 16:9
Frame rate mode : Constant
Frame rate : 29.970 (30000/1001) FPS
Color space : YUV
Chroma subsampling : 4:2:0
Bit depth : 8 bits
Scan type : Progressive
Bits/(Pixel*Frame) : 0.119
Stream size : 2.37 GiB
Default : Yes
Forced : No
Color range : Limited
Color primaries : BT.709
Transfer characteristics : BT.709
Matrix coefficients : BT.709

TJPW Online Free

Audio
ID : 2
Format : AAC LC
Format/Info : Advanced Audio
Codec ID : A_AAC-2
Duration : 1 h 42 min
Bit rate : 192 kb/s
Channel(s) : 2 channels
Channel layout : L R
Sampling rate : 48.0 kHz
Frame rate : 46.875 FPS
Compression mode : Lossy
Delay relative to video : 14 ms
Stream size : 139 MiB (5%)
Default : Yes
Forced : No

Complete name : Tokyo.Joshi.Pro.2021.07.10.Dont.Miss.The.Signs.1080p.WEB.h264-LATE.mkv
Format : Matroska
Format version : Version 4
File size : 6.01 GiB
Duration : 1 h 42 min
Overall bit rate mode : Variable
Overall bit rate : 8 370 kb/s

TJPW Online Free

Video
ID : 1
Format : AVC
Format/Info : Advanced Video
Duration : 1 h 42 min
Bit rate mode : Variable
Bit rate : 7 987 kb/s
Maximum bit rate : 18.0 Mb/s
Width : 1 920 pixels
Height : 1 080 pixels
Display aspect ratio : 16:9
Frame rate mode : Constant
Frame rate : 29.970 (30000/1001) FPS
Color space : YUV
Chroma subsampling : 4:2:0
Bit depth : 8 bits
Scan type : Progressive
Bits/(Pixel*Frame) : 0.129
Stream size : 5.74 GiB (95%)
Default : Yes
Forced : No
Color range : Limited
Color primaries : BT.709
Transfer characteristics : BT.709
Matrix coefficients : BT.709

TJPW Online Free

Audio
ID : 2
Format : AAC LC
Format/Info : Advanced Audio
Codec ID : A_AAC-2
Duration : 1 h 42 min
Bit rate : 384 kb/s
Channel(s) : 2 channels
Channel layout : L R
Sampling rate : 48.0 kHz
Frame rate : 46.875 FPS
Compression mode : Lossy
Delay relative to video : 14 ms
Stream size : 281 MiB (5%)
Default : Yes
Forced : No

Complete name : Tokyo.Joshi.Pro.2021.07.10.Dont.Miss.The.Signs.WEB.h264-LATE.mkv
Format : Matroska
Format version : Version 4
File size : 1.16 GiB
Duration : 1 h 42 min
Overall bit rate mode : Variable
Overall bit rate : 1 619 kb/s

TJPW Online Free

Video
ID : 1
Format : AVC
Format/Info : Advanced Video
Duration : 1 h 42 min
Bit rate mode : Variable
Bit rate : 1 491 kb/s
Maximum bit rate : 4 000 kb/s
Width : 960 pixels
Height : 540 pixels
Display aspect ratio : 16:9
Frame rate mode : Constant
Frame rate : 29.970 (30000/1001) FPS
Color space : YUV
Chroma subsampling : 4:2:0
Bit depth : 8 bits
Scan type : Progressive
Bits/(Pixel*Frame) : 0.096
Stream size : 1.07 GiB (92%)
Default : Yes
Forced : No
Color range : Limited
Color primaries : BT.709
Transfer characteristics : BT.709
Matrix coefficients : BT.709

TJPW Online Free

Audio
ID : 2
Format : AAC LC
Format/Info : Advanced Audio
Codec ID : A_AAC-2
Duration : 1 h 42 min
Bit rate : 125 kb/s
Channel(s) : 2 channels
Channel layout : L R
Sampling rate : 48.0 kHz
Frame rate : 46.875 FPS
Compression mode : Lossy
Delay relative to video : 14 ms
Stream size : 92.2 MiB (8%)
Default : Yes
Forced : No

TJPW Online Free

Complete name : Tokyo.Joshi.Pro.2021.07.10.Dont.Miss.The.Signs.720p.WEB.h264-LATE.mkv
Format : Matroska
Format version : Version 4
File size : 2.50 GiB
Duration : 1 h 42 min
Overall bit rate mode : Variable
Overall bit rate : 3 485 kb/s

Video
ID : 1
Format : AVC
Format/Info : Advanced Video
Duration : 1 h 42 min
Bit rate mode : Variable
Bit rate : 3 293 kb/s
Maximum bit rate : 8 000 kb/s
Width : 1 280 pixels
Height : 720 pixels
Display aspect ratio : 16:9
Frame rate mode : Constant
Frame rate : 29.970 (30000/1001) FPS
Color space : YUV
Chroma subsampling : 4:2:0
Bit depth : 8 bits
Scan type : Progressive
Bits/(Pixel*Frame) : 0.119
Stream size : 2.37 GiB
Default : Yes
Forced : No
Color range : Limited
Color primaries : BT.709
Transfer characteristics : BT.709
Matrix coefficients : BT.709

TJPW Online Free

Audio
ID : 2
Format : AAC LC
Format/Info : Advanced Audio
Codec ID : A_AAC-2
Duration : 1 h 42 min
Bit rate : 192 kb/s
Channel(s) : 2 channels
Channel layout : L R
Sampling rate : 48.0 kHz
Frame rate : 46.875 FPS
Compression mode : Lossy
Delay relative to video : 14 ms
Stream size : 139 MiB (5%)
Default : Yes
Forced : No

Complete name : Tokyo.Joshi.Pro.2021.07.10.Dont.Miss.The.Signs.1080p.WEB.h264-LATE.mkv
Format : Matroska
Format version : Version 4
File size : 6.01 GiB
Duration : 1 h 42 min
Overall bit rate mode : Variable
Overall bit rate : 8 370 kb/s

TJPW Online Free

Video
ID : 1
Format : AVC
Format/Info : Advanced Video
Duration : 1 h 42 min
Bit rate mode : Variable
Bit rate : 7 987 kb/s
Maximum bit rate : 18.0 Mb/s
Width : 1 920 pixels
Height : 1 080 pixels
Display aspect ratio : 16:9
Frame rate mode : Constant
Frame rate : 29.970 (30000/1001) FPS
Color space : YUV
Chroma subsampling : 4:2:0
Bit depth : 8 bits
Scan type : Progressive
Bits/(Pixel*Frame) : 0.129
Stream size : 5.74 GiB (95%)
Default : Yes
Forced : No
Color range : Limited
Color primaries : BT.709
Transfer characteristics : BT.709
Matrix coefficients : BT.709

TJPW Online Free

Audio
ID : 2
Format : AAC LC
Format/Info : Advanced Audio
Codec ID : A_AAC-2
Duration : 1 h 42 min
Bit rate : 384 kb/s
Channel(s) : 2 channels
Channel layout : L R
Sampling rate : 48.0 kHz
Frame rate : 46.875 FPS
Compression mode : Lossy
Delay relative to video : 14 ms
Stream size : 281 MiB (5%)
Default : Yes
Forced : No

Complete name : Tokyo.Joshi.Pro.2021.07.10.Dont.Miss.The.Signs.WEB.h264-LATE.mkv
Format : Matroska
Format version : Version 4
File size : 1.16 GiB
Duration : 1 h 42 min
Overall bit rate mode : Variable
Overall bit rate : 1 619 kb/s

TJPW Online Free

Video
ID : 1
Format : AVC
Format/Info : Advanced Video
Duration : 1 h 42 min
Bit rate mode : Variable
Bit rate : 1 491 kb/s
Maximum bit rate : 4 000 kb/s
Width : 960 pixels
Height : 540 pixels
Display aspect ratio : 16:9
Frame rate mode : Constant
Frame rate : 29.970 (30000/1001) FPS
Color space : YUV
Chroma subsampling : 4:2:0
Bit depth : 8 bits
Scan type : Progressive
Bits/(Pixel*Frame) : 0.096
Stream size : 1.07 GiB (92%)
Default : Yes
Forced : No
Color range : Limited
Color primaries : BT.709
Transfer characteristics : BT.709
Matrix coefficients : BT.709

TJPW Online Free

Audio
ID : 2
Format : AAC LC
Format/Info : Advanced Audio
Codec ID : A_AAC-2
Duration : 1 h 42 min
Bit rate : 125 kb/s
Channel(s) : 2 channels
Channel layout : L R
Sampling rate : 48.0 kHz
Frame rate : 46.875 FPS
Compression mode : Lossy
Delay relative to video : 14 ms
Stream size : 92.2 MiB (8%)
Default : Yes
Forced : No

TJPW Online Free

Complete name : Tokyo.Joshi.Pro.2021.07.10.Dont.Miss.The.Signs.720p.WEB.h264-LATE.mkv
Format : Matroska
Format version : Version 4
File size : 2.50 GiB
Duration : 1 h 42 min
Overall bit rate mode : Variable
Overall bit rate : 3 485 kb/s

Video
ID : 1
Format : AVC
Format/Info : Advanced Video
Duration : 1 h 42 min
Bit rate mode : Variable
Bit rate : 3 293 kb/s
Maximum bit rate : 8 000 kb/s
Width : 1 280 pixels
Height : 720 pixels
Display aspect ratio : 16:9
Frame rate mode : Constant
Frame rate : 29.970 (30000/1001) FPS
Color space : YUV
Chroma subsampling : 4:2:0
Bit depth : 8 bits
Scan type : Progressive
Bits/(Pixel*Frame) : 0.119
Stream size : 2.37 GiB
Default : Yes
Forced : No
Color range : Limited
Color primaries : BT.709
Transfer characteristics : BT.709
Matrix coefficients : BT.709

TJPW Online Free

Audio
ID : 2
Format : AAC LC
Format/Info : Advanced Audio
Codec ID : A_AAC-2
Duration : 1 h 42 min
Bit rate : 192 kb/s
Channel(s) : 2 channels
Channel layout : L R
Sampling rate : 48.0 kHz
Frame rate : 46.875 FPS
Compression mode : Lossy
Delay relative to video : 14 ms
Stream size : 139 MiB (5%)
Default : Yes
Forced : No

Complete name : Tokyo.Joshi.Pro.2021.07.10.Dont.Miss.The.Signs.1080p.WEB.h264-LATE.mkv
Format : Matroska
Format version : Version 4
File size : 6.01 GiB
Duration : 1 h 42 min
Overall bit rate mode : Variable
Overall bit rate : 8 370 kb/s

TJPW Online Free

Video
ID : 1
Format : AVC
Format/Info : Advanced Video
Duration : 1 h 42 min
Bit rate mode : Variable
Bit rate : 7 987 kb/s
Maximum bit rate : 18.0 Mb/s
Width : 1 920 pixels
Height : 1 080 pixels
Display aspect ratio : 16:9
Frame rate mode : Constant
Frame rate : 29.970 (30000/1001) FPS
Color space : YUV
Chroma subsampling : 4:2:0
Bit depth : 8 bits
Scan type : Progressive
Bits/(Pixel*Frame) : 0.129
Stream size : 5.74 GiB (95%)
Default : Yes
Forced : No
Color range : Limited
Color primaries : BT.709
Transfer characteristics : BT.709
Matrix coefficients : BT.709

TJPW Online Free

Audio
ID : 2
Format : AAC LC
Format/Info : Advanced Audio
Codec ID : A_AAC-2
Duration : 1 h 42 min
Bit rate : 384 kb/s
Channel(s) : 2 channels
Channel layout : L R
Sampling rate : 48.0 kHz
Frame rate : 46.875 FPS
Compression mode : Lossy
Delay relative to video : 14 ms
Stream size : 281 MiB (5%)
Default : Yes
Forced : No

Complete name : Tokyo.Joshi.Pro.2021.07.10.Dont.Miss.The.Signs.WEB.h264-LATE.mkv
Format : Matroska
Format version : Version 4
File size : 1.16 GiB
Duration : 1 h 42 min
Overall bit rate mode : Variable
Overall bit rate : 1 619 kb/s

TJPW Online Free

Video
ID : 1
Format : AVC
Format/Info : Advanced Video
Duration : 1 h 42 min
Bit rate mode : Variable
Bit rate : 1 491 kb/s
Maximum bit rate : 4 000 kb/s
Width : 960 pixels
Height : 540 pixels
Display aspect ratio : 16:9
Frame rate mode : Constant
Frame rate : 29.970 (30000/1001) FPS
Color space : YUV
Chroma subsampling : 4:2:0
Bit depth : 8 bits
Scan type : Progressive
Bits/(Pixel*Frame) : 0.096
Stream size : 1.07 GiB (92%)
Default : Yes
Forced : No
Color range : Limited
Color primaries : BT.709
Transfer characteristics : BT.709
Matrix coefficients : BT.709

TJPW Online Free

Audio
ID : 2
Format : AAC LC
Format/Info : Advanced Audio
Codec ID : A_AAC-2
Duration : 1 h 42 min
Bit rate : 125 kb/s
Channel(s) : 2 channels
Channel layout : L R
Sampling rate : 48.0 kHz
Frame rate : 46.875 FPS
Compression mode : Lossy
Delay relative to video : 14 ms
Stream size : 92.2 MiB (8%)
Default : Yes
Forced : No

TJPW Online Free

Complete name : Tokyo.Joshi.Pro.2021.07.10.Dont.Miss.The.Signs.720p.WEB.h264-LATE.mkv
Format : Matroska
Format version : Version 4
File size : 2.50 GiB
Duration : 1 h 42 min
Overall bit rate mode : Variable
Overall bit rate : 3 485 kb/s

Video
ID : 1
Format : AVC
Format/Info : Advanced Video
Duration : 1 h 42 min
Bit rate mode : Variable
Bit rate : 3 293 kb/s
Maximum bit rate : 8 000 kb/s
Width : 1 280 pixels
Height : 720 pixels
Display aspect ratio : 16:9
Frame rate mode : Constant
Frame rate : 29.970 (30000/1001) FPS
Color space : YUV
Chroma subsampling : 4:2:0
Bit depth : 8 bits
Scan type : Progressive
Bits/(Pixel*Frame) : 0.119
Stream size : 2.37 GiB
Default : Yes
Forced : No
Color range : Limited
Color primaries : BT.709
Transfer characteristics : BT.709
Matrix coefficients : BT.709

TJPW Online Free

Audio
ID : 2
Format : AAC LC
Format/Info : Advanced Audio
Codec ID : A_AAC-2
Duration : 1 h 42 min
Bit rate : 192 kb/s
Channel(s) : 2 channels
Channel layout : L R
Sampling rate : 48.0 kHz
Frame rate : 46.875 FPS
Compression mode : Lossy
Delay relative to video : 14 ms
Stream size : 139 MiB (5%)
Default : Yes
Forced : No

Complete name : Tokyo.Joshi.Pro.2021.07.10.Dont.Miss.The.Signs.1080p.WEB.h264-LATE.mkv
Format : Matroska
Format version : Version 4
File size : 6.01 GiB
Duration : 1 h 42 min
Overall bit rate mode : Variable
Overall bit rate : 8 370 kb/s

TJPW Online Free

Video
ID : 1
Format : AVC
Format/Info : Advanced Video
Duration : 1 h 42 min
Bit rate mode : Variable
Bit rate : 7 987 kb/s
Maximum bit rate : 18.0 Mb/s
Width : 1 920 pixels
Height : 1 080 pixels
Display aspect ratio : 16:9
Frame rate mode : Constant
Frame rate : 29.970 (30000/1001) FPS
Color space : YUV
Chroma subsampling : 4:2:0
Bit depth : 8 bits
Scan type : Progressive
Bits/(Pixel*Frame) : 0.129
Stream size : 5.74 GiB (95%)
Default : Yes
Forced : No
Color range : Limited
Color primaries : BT.709
Transfer characteristics : BT.709
Matrix coefficients : BT.709

TJPW Online Free

Audio
ID : 2
Format : AAC LC
Format/Info : Advanced Audio
Codec ID : A_AAC-2
Duration : 1 h 42 min
Bit rate : 384 kb/s
Channel(s) : 2 channels
Channel layout : L R
Sampling rate : 48.0 kHz
Frame rate : 46.875 FPS
Compression mode : Lossy
Delay relative to video : 14 ms
Stream size : 281 MiB (5%)
Default : Yes
Forced : No

Complete name : Tokyo.Joshi.Pro.2021.07.10.Dont.Miss.The.Signs.WEB.h264-LATE.mkv
Format : Matroska
Format version : Version 4
File size : 1.16 GiB
Duration : 1 h 42 min
Overall bit rate mode : Variable
Overall bit rate : 1 619 kb/s

TJPW Online Free

Video
ID : 1
Format : AVC
Format/Info : Advanced Video
Duration : 1 h 42 min
Bit rate mode : Variable
Bit rate : 1 491 kb/s
Maximum bit rate : 4 000 kb/s
Width : 960 pixels
Height : 540 pixels
Display aspect ratio : 16:9
Frame rate mode : Constant
Frame rate : 29.970 (30000/1001) FPS
Color space : YUV
Chroma subsampling : 4:2:0
Bit depth : 8 bits
Scan type : Progressive
Bits/(Pixel*Frame) : 0.096
Stream size : 1.07 GiB (92%)
Default : Yes
Forced : No
Color range : Limited
Color primaries : BT.709
Transfer characteristics : BT.709
Matrix coefficients : BT.709

TJPW Online Free

Audio
ID : 2
Format : AAC LC
Format/Info : Advanced Audio
Codec ID : A_AAC-2
Duration : 1 h 42 min
Bit rate : 125 kb/s
Channel(s) : 2 channels
Channel layout : L R
Sampling rate : 48.0 kHz
Frame rate : 46.875 FPS
Compression mode : Lossy
Delay relative to video : 14 ms
Stream size : 92.2 MiB (8%)
Default : Yes
Forced : No

TJPW Online Free

 

[collapse]

 

 

https://dx-tv.com/

Leave a Reply

Your email address will not be published. Required fields are marked *

This site uses Akismet to reduce spam. Learn how your comment data is processed.

Previous Post
WWE 205-Live

WWE 205 Live 2021 07 09 Online Free Replay

Next Post
GCW Fight Club Houston

GCW Fight Club Houston 2021 07 09 Online Free