Watch WWE The Best Of The Holidays 1080p DX-TV

Watch WWE Network The Best Of The Holidays 1080p DX-TV

Watch WWE The Best Of The Holidays

 Watch WWE The Best Of The Holidays

 

Download Links with premium High Speed   

 

 

nitroflare.com

http://shrt10.com/lODl1hE

 

 

rapidgator.net

http://shrt10.com/RlCVMPWD

 

 

uploaded.net

http://shrt10.com/VMvhcD

 

 

uploadgig.com

http://shrt10.com/T83mXf4

 

Watch online

 

Server 1

 

 

 

 

watch now

 

 

 

 

Server-2

 

 

 

 

watch now

 

 

Uploaded By Site DX-TV.com

 

 

 

[su_expand more_text=”Show More Info” less_text=”Close all Info” height=”50″ text_color=”#000000″ link_color=”#e25f8b” link_style=”button” more_icon=”icon: arrow-down” less_icon=”icon: arrow-up”]

Complete name : WWE.The.Best.Of.WWE.E59.The.Best.Of.The.Holidays.1080p.WEB.h264-HEEL.mp4
Format : MPEG-4
Format profile : Base Media
Codec ID : isom
File size : 4.20 GiB
Duration : 1 h 15 min
Overall bit rate mode : Variable
Overall bit rate : 7 953 kb/s
Writing application : Lavf58.32.104

Watch WWE The Best Of The Holidays

Video
ID : 1
Format : AVC
Duration : 1 h 15 min
Bit rate : 7 808 kb/s
Width : 1 920 pixels
Height : 1 080 pixels
Display aspect ratio : 16:9
Frame rate mode : Constant
Frame rate : 30.000 FPS
Color space : YUV
Chroma subsampling : 4:2:0
Bit depth : 8 bits
Scan type : Progressive
Bits/(Pixel*Frame) : 0.126
Stream size : 4.09 GiB (97%)
Codec configuration box : avc

Watch WWE The Best Of The Holidays

Audio
ID : 2
Format : AAC LC
Format/Info : Advanced Audio Codec Low Complexity
Codec ID : mp4a-40-2
Duration : 1 h 15 min
Bit rate mode : Variable
Bit rate : 192 kb/s
Maximum bit rate : 537 kb/s
Channel(s) : 2 channels
Channel layout : L R
Sampling rate : 48.0 kHz
Frame rate : 46.875 FPS (1024 SPF)
Compression mode : Lossy
Stream size : 104 MiB (2%)
Default : Yes
Alternate group : 1

Watch WWE The Best Of The Holidays

Format : AVC
Duration : 1 h 15 min
Bit rate : 7 808 kb/s
Width : 1 920 pixels
Height : 1 080 pixels
Display aspect ratio : 16:9
Frame rate mode : Constant
Frame rate : 30.000 FPS
Color space : YUV
Chroma subsampling : 4:2:0
Bit depth : 8 bits
Scan type : Progressive
Bits/(Pixel*Frame) : 0.126
Stream size : 4.09 GiB (97%)
Codec configuration box : avc

Watch WWE The Best Of The Holidays

Format : AAC LC
Format/Info : Advanced Audio Codec Low Complexity
Codec ID : mp4a-40-2
Duration : 1 h 15 min
Bit rate mode : Variable
Bit rate : 192 kb/s
Maximum bit rate : 537 kb/s
Channel(s) : 2 channels
Channel layout : L R
Sampling rate : 48.0 kHz
Frame rate : 46.875 FPS (1024 SPF)
Compression mode : Lossy
Stream size : 104 MiB (2%)
Default : Yes

 WWE The Best Of The Holidays

[/su_expand]

 

https://dx-tv.com/

You May Also Like

Leave a Reply

Your email address will not be published. Required fields are marked *

This site uses Akismet to reduce spam. Learn how your comment data is processed.