NJPW Road to Tokyo Dome 22 DEC 2020 Free Online DX-TV

NJPW Road to Tokyo Dome 22 DEC 2020 DX-TV

NJPW Road to Tokyo Dome

 NJPW Road to Tokyo Dome

 

Download Links with premium High Speed   

 

 

nitroflare.com

http://shrt10.com/CAIDs

 

 

rapidgator.net

http://shrt10.com/GHOuMn

 

 

uploaded.net

http://shrt10.com/Wrr1ApB

 

 

uploadgig.com

http://shrt10.com/ndRJ6p

 

Watch online

 

Server 1

 

 

 

 

NJPW Road to Tokyo Dome

 

 

 

 

Server-2

 

 

 

 

watch now

 

 

Uploaded By Site DX-TV.com

 

 

 

[su_expand more_text=”Show More Info” less_text=”Close all Info” height=”50″ text_color=”#000000″ link_color=”#e25f8b” link_style=”button” more_icon=”icon: arrow-down” less_icon=”icon: arrow-up”]

Complete name : NJPW Live Online Road to Tokyo Dome 22 DEC 2020 WEB DX-TV.mp4
Format : MPEG-4
Format profile : Base Media
Codec ID : isom
File size : 2.51 GiB
Duration : 3 h 7 min
Overall bit rate : 1 917 kb/s
Writing application : Lavf58.25.100

 Road to Tokyo Dome

Video
ID : 1
Format : AVC
Duration : 3 h 7 min
Bit rate : 1 808 kb/s
Width : 960 pixels
Height : 540 pixels
Display aspect ratio : 16:9
Frame rate mode : Variable
Frame rate : 30.000 FPS
Minimum frame rate : 2.801 FPS
Maximum frame rate : 90 000.000 FPS
Color space : YUV
Chroma subsampling : 4:2:0
Bit depth : 8 bits
Scan type : Progressive
Bits/(Pixel*Frame) : 0.116
Stream size : 2.36 GiB (94%)
Color range : Limited
Color primaries : BT.601 PAL
Transfer characteristics : BT.601
Matrix coefficients : BT.470 System B/G
Codec configuration box : avcC

NJPW Road to Tokyo  

Audio
ID : 2
Format : AAC LC
Format/Info : Advanced Audio
Codec ID : mp4a-40-2
Duration : 3 h 7 min
Bit rate mode : Constant
Bit rate : 99.0 kb/s
Channel(s) : 2 channels
Channel layout : L R
Sampling rate : 44.1 kHz
Frame rate : 43.066 FPS (1024 SPF)
Compression mode : Lossy
Stream size : 132 MiB (5%)
Default : Yes
Alternate group : 1

NJPW Road to Tokyo Dome

Format : AVC
Duration : 3 h 7 min
Bit rate : 1 808 kb/s
Width : 960 pixels
Height : 540 pixels
Display aspect ratio : 16:9
Frame rate mode : Variable
Frame rate : 30.000 FPS
Minimum frame rate : 2.801 FPS
Maximum frame rate : 90 000.000 FPS
Color space : YUV
Chroma subsampling : 4:2:0
Bit depth : 8 bits
Scan type : Progressive
Bits/(Pixel*Frame) : 0.116
Stream size : 2.36 GiB (94%)
Color range : Limited
Color primaries : BT.601 PAL
Transfer characteristics : BT.601
Matrix coefficients : BT.470 System B/G
Codec configuration box : avc

 Road to Tokyo Dome

[/su_expand]

 

https://dx-tv.com/

You May Also Like

Leave a Reply

Your email address will not be published. Required fields are marked *

This site uses Akismet to reduce spam. Learn how your comment data is processed.