Watch WWE Slammy Awards 2020 Free Online 1080p DX-TV

Watch WWE Slammy Awards 2020 Free Online /Pre Show 720p /1080p DX-TV

Watch WWE Slammy Awards 2020

Watch WWE Slammy Awards 2020

 

Download Links with premium High Speed   

 

 

nitroflare.com

http://shrt10.com/KCXxR9vw
http://shrt10.com/q6XcFa
http://shrt10.com/vZtYm

 

 

rapidgator.net

http://shrt10.com/ZZt5w
http://shrt10.com/oFUmb
http://shrt10.com/MiyX1EmBL

 

 

uploaded.net

http://shrt10.com/F0ImL7Cc
http://shrt10.com/jWLsnURb
http://shrt10.com/noAexqMOh

 

 

uploadgig.com

http://shrt10.com/Bc79LjLB
http://shrt10.com/xLQaOPkHV
http://shrt10.com/hiNhe

 

 

 

Watch online

 

Server 1

 

 

 

 

Watch WWE Slammy Awards 2020

 

watch now

 

 

 

 

Server-2

 

 

 

 

Watch WWE Slammy Awards 2020

 

watch now

 

 

Uploaded By Site DX-TV.com

 

 

 

[su_expand more_text=”Show More Info” less_text=”Close all Info” height=”50″ text_color=”#000000″ link_color=”#e25f8b” link_style=”button” more_icon=”icon: arrow-down” less_icon=”icon: arrow-up”]

Complete name : WWE.Slammy.Awards.2020.Pre.Show.1080p.WEB.h264-HEEL.mp4
Format : MPEG-4
Format profile : Base Media
Codec ID : isom
File size : 1.19 GiB
Duration : 29 min 30 s
Overall bit rate : 5 765 kb/s
Writing application : Lavf58.32.104

Video
ID : 1
Format : AVC
Duration : 29 min 30 s
Bit rate : 5 630 kb/s
Width : 1 920 pixels
Height : 1 080 pixels
Display aspect ratio : 16:9
Frame rate mode : Variable
Frame rate : 30.000 FPS
Minimum frame rate : 29.412 FPS
Maximum frame rate : 30.303 FPS
Color space : YUV
Chroma subsampling : 4:2:0
Bit depth : 8 bits
Scan type : Progressive
Bits/(Pixel*Frame) : 0.090
Stream size : 1.16 GiB (98%)
Codec configuration box : avc

Watch WWE Slammy Awards 2020

Audio
ID : 2
Format : AAC LC
Format/Info : Advanced Audio
Codec ID : mp4a-40-2
Duration : 29 min 29 s
Bit rate mode : Constant
Bit rate : 125 kb/s
Channel(s) : 2 channels
Channel layout : L R
Sampling rate : 48.0 kHz
Frame rate : 46.875 FPS (1024 SPF)
Compression mode : Lossy
Stream size : 26.5 MiB (2%)
Default : Yes
Alternate group : 1

Text #1
ID : 1-CC1
Format : EIA-608
Muxing mode : SCTE 128 / DTVCC Transport
Muxing mode, more info : Muxed in Video #1
Duration : 29 min 30 s
Bit rate mode : Constant
Stream size : 0.00 Byte (0%)
CaptionServiceName : CC1

Text #2
ID : 1-CC3
Format : EIA-608
Muxing mode : SCTE 128 / DTVCC Transport
Muxing mode, more info : Muxed in Video #1
Duration : 29 min 30 s
Bit rate mode : Constant
Stream size : 0.00 Byte (0%)
CaptionServiceName : CC3

Watch WWE Slammy Awards 2020

Text #3
ID : 1-1
Format : EIA-708
Muxing mode : SCTE 128 / DTVCC Transport
Muxing mode, more info : Muxed in Video #1
Duration : 29 min 30 s
Bit rate mode : Constant
Stream size : 0.00 Byte (0%)

Text #4
ID : 1-2
Format : EIA-708
Muxing mode : SCTE 128 / DTVCC Transport
Muxing mode, more info : Muxed in Video #1
Duration : 29 min 30 s
Bit rate mode : Constant
Stream size : 0.00 Byte (0%)

Complete name : WWE.Slammy.Awards.2020.720p.WEB.h264-HEEL.mp4
Format : MPEG-4
Format profile : Base Media
Codec ID : isom
File size : 1.67 GiB
Duration : 1 h 19 min
Overall bit rate mode : Variable
Overall bit rate : 3 003 kb/s
Writing application : Lavf58.32.104

Watch WWE Slammy Awards 2020

Video
ID : 1
Format : AVC
Duration : 1 h 19 min
Bit rate mode : Variable
Bit rate : 2 870 kb/s
Maximum bit rate : 3 159 kb/s
Width : 1 280 pixels
Height : 720 pixels
Display aspect ratio : 16:9
Frame rate mode : Variable
Frame rate : 30.000 FPS
Minimum frame rate : 29.412 FPS
Maximum frame rate : 30.303 FPS
Standard : NTSC
Color space : YUV
Chroma subsampling : 4:2:0
Bit depth : 8 bits
Scan type : Progressive
Bits/(Pixel*Frame) : 0.104
Stream size : 1.60 GiB (96%)
Color range : Limited
Color primaries : BT.709
Transfer characteristics : BT.709
Matrix coefficients : BT.709
Codec configuration box : avcC

Audio
ID : 2
Format : AAC LC
Codec ID : mp4a-40-2
Duration : 1 h 19 min
Bit rate mode : Variable
Bit rate : 125 kb/s
Maximum bit rate : 140 kb/s
Channel(s) : 2 channels
Channel layout : L R
Sampling rate : 48.0 kHz
Frame rate : 46.875 FPS (1024 SPF)
Compression mode : Lossy
Stream size : 71.5 MiB (4%)
Default : Yes
Alternate group : 1

Watch WWE Slammy Awards 2020

Text #1
ID : 1-CC1
Format : EIA-608
Muxing mode : SCTE 128 / DTVCC Transport
Muxing mode, more info : Muxed in Video #1
Duration : 1 h 19 min
Bit rate mode : Constant
Stream size : 0.00 Byte (0%)
CaptionServiceName : CC1

Text #2
ID : 1-CC3
Format : EIA-608
Muxing mode : SCTE 128 / DTVCC Transport
Muxing mode, more info : Muxed in Video #1
Duration : 1 h 19 min
Bit rate mode : Constant
Stream size : 0.00 Byte (0%)
CaptionServiceName : CC3

 WWE Slammy Awards 2020

Text #3
ID : 1-1
Format : EIA-708
Muxing mode : SCTE 128 / DTVCC Transport
Muxing mode, more info : Muxed in Video #1
Duration : 1 h 19 min
Bit rate mode : Constant
Stream size : 0.00 Byte (0%)

Text #4
ID : 1-3
Format : EIA-708
Muxing mode : SCTE 128 / DTVCC Transport
Muxing mode, more info : Muxed in Video #1
Duration : 1 h 19 min
Bit rate mode : Constant
Stream size : 0.00 Byte (0%)

Text #5
ID : 1-4
Format : EIA-708
Muxing mode : SCTE 128 / DTVCC Transport
Muxing mode, more info : Muxed in Video #1
Duration : 1 h 19 min
Bit rate mode : Constant
Stream size : 0.00 Byte (0%)

Watch WWE Slammy Awards 2020

Text #6
ID : 1-5
Format : EIA-708
Muxing mode : SCTE 128 / DTVCC Transport
Muxing mode, more info : Muxed in Video #1
Duration : 1 h 19 min
Bit rate mode : Constant
Stream size : 0.00 Byte (0%)

Text #7
ID : 1-6
Format : EIA-708
Muxing mode : SCTE 128 / DTVCC Transport
Muxing mode, more info : Muxed in Video #1
Duration : 1 h 19 min
Bit rate mode : Constant
Stream size : 0.00 Byte (0%)

Complete name : WWE.Slammy.Awards.2020.1080p.WEB.h264-HEEL.mp4
Format : MPEG-4
Format profile : Base Media
File size : 3.24 GiB
Duration : 1 h 19 min
Overall bit rate mode : Variable
Overall bit rate : 5 818 kb/s
Writing application : Lavf58.32.104

Watch WWE Slammy Awards  

Video
ID : 1
Format : AVC
Duration : 1 h 19 min
Bit rate : 5 682 kb/s
Width : 1 920 pixels
Height : 1 080 pixels
Display aspect ratio : 16:9
Frame rate mode : Variable
Frame rate : 30.000 FPS
Minimum frame rate : 29.412 FPS
Maximum frame rate : 30.303 FPS
Color space : YUV
Chroma subsampling : 4:2:0
Bit depth : 8 bits
Scan type : Progressive
Bits/(Pixel*Frame) : 0.091
Stream size : 3.16 GiB (98%)
Codec configuration box : avcC

Audio
ID : 2
Format : AAC LC
Format/Info : Advanced Audio
Codec ID : mp4a-40-2
Duration : 1 h 19 min
Bit rate mode : Variable
Bit rate : 125 kb/s
Maximum bit rate : 135 kb/s
Channel(s) : 2 channels
Channel layout : L R
Sampling rate : 48.0 kHz
Frame rate : 46.875 FPS (1024 SPF)
Compression mode : Lossy
Stream size : 71.5 MiB (2%)
Default : Yes
Alternate group : 1

Watch WWE Slammy Awards 2020

Text #1
ID : 1-CC1
Format : EIA-608
Muxing mode : SCTE 128 / DTVCC Transport
Muxing mode, more info : Muxed in Video #1
Duration : 1 h 19 min
Bit rate mode : Constant
Stream size : 0.00 Byte (0%)
CaptionServiceName : CC1

Text #2
ID : 1-CC3
Format : EIA-608
Muxing mode : SCTE 128 / DTVCC Transport
Muxing mode, more info : Muxed in Video #1
Duration : 1 h 19 min
Bit rate mode : Constant
Stream size : 0.00 Byte (0%)
CaptionServiceName : CC3

Text #3
ID : 1-1
Format : EIA-708
Muxing mode : SCTE 128 / DTVCC Transport
Muxing mode, more info : Muxed in Video #1
Duration : 1 h 19 min
Bit rate mode : Constant
Stream size : 0.00 Byte (0%)

Watch WWE Slammy Awards 2020

Text #4
ID : 1-3
Format : EIA-708
Muxing mode : SCTE 128 / DTVCC Transport
Muxing mode, more info : Muxed in Video #1
Duration : 1 h 19 min
Bit rate mode : Constant
Stream size : 0.00 Byte (0%)

Text #5
ID : 1-4
Format : EIA-708
Muxing mode : SCTE 128 / DTVCC Transport
Muxing mode, more info : Muxed in Video #1
Duration : 1 h 19 min
Bit rate mode : Constant
Stream size : 0.00 Byte (0%)

Text #6
ID : 1-5
Format : EIA-708
Muxing mode : SCTE 128 / DTVCC Transport
Muxing mode, more info : Muxed in Video #1
Duration : 1 h 19 min
Bit rate mode : Constant
Stream size : 0.00 Byte (0%)

 WWE Slammy Awards 2020

Text #7
ID : 1-6
Format : EIA-708
Muxing mode : SCTE 128 / DTVCC Transport
Muxing mode, more info : Muxed in Video #1
Duration : 1 h 19 min
Bit rate mode : Constant
Stream size : 0.00 Byte (0%)

 

[/su_expand]

 

https://dx-tv.com/

Leave a Reply

Your email address will not be published. Required fields are marked *

This site uses Akismet to reduce spam. Learn how your comment data is processed.