Watch Stardom Osaka Dream Cinderella 2020 12 20 DX-TV

Watch Stardom Osaka Dream Cinderella 2020 12 20 720p /1080p DX-TV

Watch Stardom Osaka Dream Cinderella 2020

 Watch Stardom Osaka Dream Cinderella 2020

 

Download Links with premium High Speed   

 

nitroflare.com

http://shrt10.com/huygpGJ
http://shrt10.com/KdXiWFog

 

 

rapidgator.net

http://shrt10.com/YGRIgJ6u
http://shrt10.com/10h694N8J

 

 

uploaded.net

http://shrt10.com/Iz9DlQf7

 

 

uploadgig.com

http://shrt10.com/TgPMwC5q
http://shrt10.com/Ah2X2

 

 

 

Watch online

 

Server 1

 

 

 

 

Watch Stardom Osaka Dream Cinderella 2020

 

 

 

 

Server-2

 

 

 

 

watch now

 

 

Uploaded By Site DX-TV.com

 

 

 

[su_expand more_text=”Show More Info” less_text=”Close all Info” height=”50″ text_color=”#000000″ link_color=”#e25f8b” link_style=”button” more_icon=”icon: arrow-down” less_icon=”icon: arrow-up”]
Complete name : Stardom.2020.12.20.Osaka.Dream.Cinderella.1080p.WEB.h264-NCMP.mp4
Format : MPEG-4
Format profile : Base Media
Codec ID : isom (
File size : 5.15 GiB
Duration : 3 h 19 min
Overall bit rate : 3 694 kb/s
Writing application : Lavf57.72.101

Watch Stardom Osaka Dream Cinderella 2020

Video
ID : 1
Format : AVC
Duration : 3 h 19 min
Bit rate : 3 492 kb/s
Width : 1 920 pixels
Height : 1 080 pixels
Display aspect ratio : 16:9
Frame rate mode : Constant
Frame rate : 29.970 (30000/1001) FPS
Color space : YUV
Chroma subsampling : 4:2:0
Bit depth : 8 bits
Scan type : Progressive
Bits/(Pixel*Frame) : 0.056
Stream size : 4.86 GiB (95%)
Codec configuration box : avcC

Watch Stardom Osaka Dream Cinderella 2020

Audio
ID : 2
Format : AAC LC
Format/Info : Advanced Audio Codec
Codec ID : mp4a-40-2
Duration : 3 h 19 min
Bit rate mode : Constant
Bit rate : 192 kb/s
Channel(s) : 2 channels
Channel layout : L R
Sampling rate : 48.0 kHz
Frame rate : 46.875 FPS (1024 SPF)
Compression mode : Lossy
Stream size : 274 MiB (5%)
Default : Yes
Alternate group : 1

Complete name : Stardom.2020.12.19.1080p.WEB.h264-NCMP.mp4
Format : MPEG-4
Format profile : Base Media
Codec ID : isom
File size : 2.43 GiB
Duration : 1 h 33 min
Overall bit rate : 3 699 kb/s
Writing application : Lavf57.72.101

 Stardom Osaka Dream Cinderella  

Video
ID : 1
Format : AVC
Duration : 1 h 33 min
Bit rate : 3 498 kb/s
Width : 1 920 pixels
Height : 1 080 pixels
Display aspect ratio : 16:9
Frame rate mode : Constant
Frame rate : 29.970 (30000/1001) FPS
Color space : YUV
Chroma subsampling : 4:2:0
Bit depth : 8 bits
Scan type : Progressive
Bits/(Pixel*Frame) : 0.056
Stream size : 2.29 GiB (95%)
Codec configuration box : avc

Watch Stardom Osaka Dream 

Audio
ID : 2
Format : AAC LC
Format/Info : Advanced Audio
Codec ID : mp4a-40-2
Duration : 1 h 33 min
Bit rate mode : Constant
Bit rate : 192 kb/s
Channel(s) : 2 channels
Channel layout : L R
Sampling rate : 48.0 kHz
Frame rate : 46.875 FPS (1024 SPF)
Compression mode : Lossy
Stream size : 129 MiB (5%)
Default : Yes
Alternate group : 1

 

[/su_expand]

 

https://dx-tv.com/

You May Also Like

Leave a Reply

Your email address will not be published. Required fields are marked *

This site uses Akismet to reduce spam. Learn how your comment data is processed.