Watch WWE RAW Free Online 28 Dec 2020 720p DX-TV

Watch WWE RAW Free Online 28 Dec 2020 720p DX-TV

Watch WWE RAW Free Online

 Watch WWE RAW Free Online

 

Download Links with premium High Speed   

 

 

nitroflare.com

http://shrt10.com/UOENg

 

 

rapidgator.net

http://shrt10.com/BKIwqH

 

 

uploaded.net

http://shrt10.com/bbGHjlq

 

 

uploadgig.com

http://shrt10.com/yvN5iQl

 

 

Watch online

 

Server 1

 

 

 

 

Watch WWE RAW Free Online

 

 

 

 

Server-2

 

 

 

 

watch now

 

 

Uploaded By Site DX-TV.com

 

 

 

Complete name : WWE.RAW.28th.Dec.2020.720p.WEBRip.h264-TJ.mp4
Format : MPEG-4
Format profile : Base Media
Codec ID : isom
File size : 3.22 GiB
Duration : 2 h 6 min
Overall bit rate mode : Constant
Overall bit rate : 3 634 kb/s
Law rating : TV-PG (V)
Writing application : Lavf55.33.100

Watch WWE RAW Free Online

Video
ID : 2
Format : AVC
Duration : 2 h 6 min
Bit rate mode : Constant
Bit rate : 3 500 kb/s
Width : 1 280 pixels
Height : 720 pixels
Display aspect ratio : 16:9
Frame rate : 29.970 (30000/1001) FPS
Standard : Component
Color space : YUV
Chroma subsampling : 4:2:0
Bit depth : 8 bits
Scan type : Progressive
Bits/(Pixel*Frame) : 0.127
Stream size : 3.10 GiB (96%)
Color range : Limited
Color primaries : BT.709
Transfer characteristics : BT.709
Matrix coefficients : BT.709
Codec configuration box : avc

 WWE RAW Free Online

Audio
ID : 1
Format : AAC LC
Format/Info : Advanced Audio Codec Low Complexity
Codec ID : mp4a-40-2
Duration : 2 h 6 min
Bit rate mode : Constant
Bit rate : 125 kb/s
Channel(s) : 2 channels
Channel layout : L R
Sampling rate : 48.0 kHz
Frame rate : 46.875 FPS (1024 SPF)
Compression mode : Lossy
Stream size : 114 MiB (3%)
Default : Yes
Alternate group : 1

 WWE RAW Free  

Text #1
ID : 2-CC1
Format : EIA-608
Muxing mode : SCTE 128 / DTVCC Transport
Muxing mode, more info : Muxed in Video #1
Duration : 2 h 6 min
Bit rate mode : Constant
Stream size : 0.00 Byte (0%)
CaptionServiceName : CC1

Watch WWE RAW 

Text #2
ID : 2-1
Format : EIA-708
Muxing mode : SCTE 128 / DTVCC Transport
Muxing mode, more info : Muxed in Video #1
Duration : 2 h 6 min
Bit rate mode : Constant
Stream size : 0.00 Byte (0%)

Watch WWE RAW Free Online

Text #2
ID : 2-1
Format : EIA-708
Muxing mode : SCTE 128 / DTVCC Transport
Muxing mode, more info : Muxed in Video #1
Duration : 2 h 6 min
Bit rate mode : Constant
Stream size : 0.00 Byte (0%)
https://dx-tv.com/

Leave a Reply

Your email address will not be published. Required fields are marked *

This site uses Akismet to reduce spam. Learn how your comment data is processed.