ROH Wrestling 25 Dec 2020 1080p DX-TV

ROH Wrestling 25 Dec 2020 1080p DX-TV

ROH Wrestling 25 Dec

 ROH Wrestling 25 Dec

 

Download Links with premium High Speed   

 

 

nitroflare.com

http://shrt10.com/HBQPm9Pvv

 

 

rapidgator.net

http://shrt10.com/9gHi0b99

 

 

uploaded.net

http://shrt10.com/SDBFSLlRA

 

uploadgig.com

http://shrt10.com/MpVBm

 

 

Watch ROH Wrestling online

 

Server 1

 

 

 

 

ROH Wrestling 25 Dec

 

 

 

 

Server-2

 

 

 

 

watch now

 

 

Uploaded By Site DX-TV.com

 

Complete name : ROH.Wrestling.Ep.484.25th.Dec.2020.1080p.WEBRip.h264-TJ.mp4
Format : MPEG-4
Format profile : Base Media
File size : 1.31 GiB
Duration : 50 min 43 s
Overall bit rate mode : Variable
Overall bit rate : 3 693 kb/s
Writing application : Lavf58.51.101

ROH Wrestling 25 Dec

Video
ID : 1
Format : AVC
Duration : 50 min 43 s
Bit rate : 3 493 kb/s
Width : 1 920 pixels
Height : 1 080 pixels
Display aspect ratio : 16:9
Frame rate mode : Constant
Frame rate : 29.970 (30000/1001) FPS
Color space : YUV
Chroma subsampling : 4:2:0
Bit depth : 8 bits
Scan type : Progressive
Bits/(Pixel*Frame) : 0.056
Stream size : 1.24 GiB (95%)
Codec configuration box : avc

ROH Wrestling 

Audio
ID : 2
Format : AAC LC
Format/Info : Advanced Audio
Codec ID : mp4a-40-2
Duration : 50 min 43 s
Bit rate mode : Variable
Bit rate : 192 kb/s
Maximum bit rate : 199 kb/s
Channel(s) : 2 channels
Channel layout : L R
Sampling rate : 48.0 kHz
Frame rate : 46.875 FPS (1024 SPF)
Compression mode : Lossy
Stream size : 69.6 MiB (5%)
Default : Yes
Alternate group : 1

ROH Wrestling 25 Dec

Audio
ID : 2
Format : AAC LC
Format/Info : Advanced Audio
Codec ID : mp4a-40-2
Duration : 50 min 43 s
Bit rate mode : Variable
Bit rate : 192 kb/s
Maximum bit rate : 199 kb/s
Channel(s) : 2 channels
Channel layout : L R
Sampling rate : 48.0 kHz
Frame rate : 46.875 FPS (1024 SPF)
Compression mode : Lossy
Stream size : 69.6 MiB (5%)
Default : Yes
Alternate group : 1

ROH Wrestling  

Audio
ID : 2
Format : AAC LC
Format/Info : Advanced Audio
Codec ID : mp4a-40-2
Duration : 50 min 43 s
Bit rate mode : Variable
Bit rate : 192 kb/s
Maximum bit rate : 199 kb/s
Channel(s) : 2 channels
Channel layout : L R
Sampling rate : 48.0 kHz
Frame rate : 46.875 FPS (1024 SPF)
Compression mode : Lossy
Stream size : 69.6 MiB (5%)
Default : Yes
Alternate group : 1

https://dx-tv.com/

Leave a Reply

Your email address will not be published. Required fields are marked *

This site uses Akismet to reduce spam. Learn how your comment data is processed.