Watch WWE Raw 720p 14 Nov 2020 Full Show Replay

WWE Raw 720p 14 Nov 2020 Full Show Replay DX-TV

WWE Raw 14 Nov 2020

 

 WWE Raw 14 Nov 2020

 

Watch WWE Raw 720p 14 Nov 2020 Full Show Replay

 

 

[su_expand more_text=”Show More Info” less_text=”Close all Info” height=”30″ text_color=”#000000″ link_color=”#e25f8b” link_style=”button” more_icon=”icon: arrow-down” less_icon=”icon: arrow-up”]

 

Bray Wyatt def. The Miz

The Miz pleaded for Bray Wyatt to rethink their match, but The A-Lister should have known there is no reasoning with “The Firefly Funhouse” host.

Wyatt wore a sadistic smile early on, as he absorbed attacks from The Miz before going on the offensive.

As John Morrison tried to help out his teammate, Alexa Bliss came flying into the picture to knock him over the barricade.

Wyatt would turn back to the ring and smash The Miz with a Sister Abigail to claim the win.

WWE Raw 14 Nov 2020

Complete name : WWE.Monday.Night.Raw.2020.11.16.720p.HDTV.x264-NWCHD.mp4
Format : MPEG-4
Format profile : Base Media
Codec ID : isom
File size : 4.09 GiB
Duration : 2 h 4 min
Overall bit rate : 4 712 kb/s
Writing application : Lavf58

WWE Raw 14 Nov 2020

Video
ID : 1
Format : AVC
Duration : 2 h 4 min
Bit rate : 4 500 kb/s
Width : 1 280 pixels
Height : 720 pixels
Display aspect ratio : 16:9
Frame rate mode : Variable
Frame rate : 29.970 FPS
Color space : YUV
Chroma subsampling : 4:2:0
Bit depth : 8 bits
Scan type : Progressive
Bits/(Pixel*Frame) : 0.163
Stream size : 3.92 GiB
Color primaries : BT.709
Transfer characteristics : BT.709
Matrix coefficients : BT.709
Codec configuration box : avc

WWE Raw 14 Nov 2020

Audio
ID : 2
Format : AAC LC
Format/Info : Advanced Audio
Codec ID : mp4a-40-2
Duration : 2 h 4 min
Bit rate mode : Constant
Bit rate : 192 kb/s
Channel(s) : 2 channels
Channel layout : L R
Sampling rate : 48.0 kHz
Frame rate : 46.875 FPS
Compression mode : Lossy
Stream size : 171 MiB
Title : Stereo
Language : English
Default : Yes
Alternate group : 1

 

[/su_expand]
 

Watch WWE Raw 720p 14 Nov 2020 Full Show Replay

 

Watch online

 

 

Server 1

 

 

 

 

 

 

 

 

Server-2

 

 

 

 

 

 

 

 

 

Uploaded By Site DX-TV.com

 

 

 

 

Download Free Links with normal and high Speed [ more 14 hosts ]  

 

[su_expand more_text=”Show Hosts Info” less_text=”Close all Info” height=”30″ text_color=”#000000″ link_color=”#e25f8b” link_style=”button” more_icon=”icon: arrow-down” less_icon=”icon: arrow-up”]

WWE Raw 14 Nov 2020

 

hexupload.net – clicknupload.co – www.multiup.org

– uptobox.com – anonfiles.com – userscloud.com –

dropapk.to alfafile.net – ddownload.com – rockfile.co

– 1fichier.com – filedown.org – katfile.com – filerio.in

 

 

[/su_expand]

 

 

http://shrt10.com/2IyeeK
http://shrt10.com/qKrNkk
http://shrt10.com/JewFGp
http://shrt10.com/j8QrG4V
http://shrt10.com/8igbpqvg
http://shrt10.com/zBZ3Xw5K

 

 

WWE Raw 14 Nov 2020

 

Download Links with premium High Speed   

 

 

 

 

dropapk.to

 

 

 

nitroflare.com

 

 

 

rapidgator.net

 

 

 

uploaded.net

 

 

 

uploadgig.com

 

 

 

 

 

dx-tv.com

 

urlfree.net

You May Also Like

Leave a Reply

Your email address will not be published. Required fields are marked *

This site uses Akismet to reduce spam. Learn how your comment data is processed.