WWE Raw 14 Nov 2020 Full Show Free Online

Watch WWE Raw 14 Nov 2020 Full Show Free Online DX-TV

WWE Raw 14 Nov 2020

 

 WWE Raw 14 Nov 2020

 

WWE Raw 14 Nov 2020 Full Show Free Online

 

 

[su_expand more_text=”Show More Info” less_text=”Close all Info” height=”30″ text_color=”#000000″ link_color=”#e25f8b” link_style=”button” more_icon=”icon: arrow-down” less_icon=”icon: arrow-up”]

 

Complete name : WWE.Monday.Night.Raw.2020.11.16.HDTV.x264-NWCHD.mp4
Format : MPEG-4
Format profile : Base Media
Codec ID : isom
File size : 1.39 GiB
Duration : 2 h 4 min
Overall bit rate : 1 604 kb/s
Writing application : Lavf58.27

WWE Raw 14 2020

Video
ID : 1
Format : AVC
Duration : 2 h 4 min
Bit rate : 1 400 kb/s
Width : 704 pixels
Height : 400 pixels
Display aspect ratio : 16:9
Frame rate mode : Variable
Frame rate : 29.970 FPS
Color space : YUV
Chroma sampling : 4:2:0
Bit depth : 8 bits
Scan type : Progressive
Bits/(Pixel*Frame) : 0.166
Stream size : 1.22 GiB
Color primaries : BT.709
Transfer characteristics : BT.709
Matrix coefficients : BT.709
Codec configuration box : avc

WWE Raw 14 Nov 

Audio
ID : 2
Format : AAC LC
Format/Info : Advanced Audio
Codec ID : mp4a-40-2
Duration : 2 h 4 min
Bit rate mode : Constant
Bit rate : 192 kb/s
Channel(s) : 2 channels
Channel layout : L R
Sampling rate : 48.0 kHz
Frame rate : 46.875 FPS
Compression mode : Lossy
Stream size : 171 MiB
Title : Stereo
Language : English
Default : Yes
Alternate group : 1

WWE Raw 14 

RETRIBUTION def. Keith Lee, Riddle, Braun Strowman & Sheamus – Eight-Man Tag Team Match

Team Raw put their explosive partnership to the test in a massive Eight-Man Tag Team Match against RETRIBUTION.

As the team’s self-proclaimed captain, Styles tried to focus Team Raw on a common enemy,

but it was RETRIBUTION who found their desired target first.

T-BAR, MACE & SLAPJACK all took their turns attacking Riddle inside the ring, while Sheamus and Braun Strowman nearly brawled outside it.

Just as Team Raw seemed headed for a breakthrough, an argument broke up between all four competitors.

and Mustafa Ali swooped in to pick up the pieces to claim a win for RETRIBUTION.

 

[/su_expand]

WWE Raw 14 Nov 2020 Full Show Free Online

 

Watch online

 

 

Server 1

 

 

 

 

 

 

 

WWE Raw 14 Nov 

Server-2

 

 

 

 

 

 

Uploaded By Site DX-TV.com

 

Download Free Links with normal and high Speed [ more 14 hosts ]  

 

[su_expand more_text=”Show Hosts Info” less_text=”Close all Info” height=”30″ text_color=”#000000″ link_color=”#e25f8b” link_style=”button” more_icon=”icon: arrow-down” less_icon=”icon: arrow-up”]

 

Raw 14 Nov 2020

hexupload.net – clicknupload.co – www.multiup.org

– uptobox.com – anonfiles.com – userscloud.com –

dropapk.to alfafile.net – ddownload.com – rockfile.co

– 1fichier.com – filedown.org – katfile.com – filerio.in

 

 

[/su_expand]

 

 

 

http://shrt10.com/FaGVb
http://shrt10.com/ErselQak
http://shrt10.com/YkEfgR
http://shrt10.com/z22WbR
http://shrt10.com/JAW1juT4
http://shrt10.com/YqDEBFa
http://shrt10.com/mxcRu3w

 

 

 

Download Links with premium High Speed   

 

 

 

 

dropapk.to

 

 

 

nitroflare.com

 

 

 

rapidgator.net

 

 

 

uploaded.net

 

 

 

uploadgig.com

 

 

 

 

 

dx-tv.com

 

urlfree.net

You May Also Like

Leave a Reply

Your email address will not be published. Required fields are marked *

This site uses Akismet to reduce spam. Learn how your comment data is processed.