Watch WWE Online The Bump.2020 12 16 1080p DX-TV

Watch WWE Online The Bump.2020 12 16 1080p DX-TV

Watch WWE Online

 Watch WWE Online

 

Download Links with premium High Speed   

 

 

dropapk.to

http://shrt10.com/5FNxSUyni

 

 

nitroflare.com

http://shrt10.com/SN5ub2wV

 

 

rapidgator.net

http://shrt10.com/rmkKrV

 

 

uploaded.net

http://shrt10.com/VcmxyS

 

 

uploadgig.com

http://shrt10.com/CtZhb

 

 

Watch online

 

Server 1

 

 

 

 

Watch WWE Online

 

 

 

 

Server-2

 

 

 

 

watch now

 

 

Uploaded By Site DX-TV.com

 

 

 

[su_expand more_text=”Show More Info” less_text=”Close all Info” height=”50″ text_color=”#000000″ link_color=”#e25f8b” link_style=”button” more_icon=”icon: arrow-down” less_icon=”icon: arrow-up”]

Complete name : WWE.The.Bump.2020.12.16.1080p.WEB.h264-HEEL.mp4
Format : MPEG-4
Format profile : Base Media
Codec ID : isom
File size : 2.94 GiB
Duration : 1 h 15 min
Overall bit rate : 5 569 kb/s
Writing application : Lavf58.32.104

Video
ID : 1
Format : AVC
Duration : 1 h 15 min
Bit rate : 5 434 kb/s
Width : 1 920 pixels
Height : 1 080 pixels
Display aspect ratio : 16:9
Frame rate mode : Variable
Frame rate : 30.000 FPS
Color space : YUV
Chroma subsampling : 4:2:0
Bit depth : 8 bits
Scan type : Progressive
Bits/(Pixel*Frame) : 0.087
Stream size : 2.87 GiB (98%)
Codec configuration box : avc

Watch WWE Online

Audio
ID : 2
Format : AAC LC
Format/Info : Advanced Audio
Codec ID : mp4a-40-2
Duration : 1 h 15 min
Bit rate mode : Constant
Bit rate : 125 kb/s
Channel(s) : 2 channels
Channel layout : L R
Sampling rate : 48.0 kHz
Frame rate : 46.875 FPS (1024 SPF)
Compression mode : Lossy
Stream size : 67.7 MiB (2%)
Default : Yes
Alternate group : 1

Text #1
ID : 1-CC1
Format : EIA-608
Muxing mode : SCTE 128 / DTVCC Transport
Muxing mode, more info : Muxed in Video #1
Duration : 1 h 15 min
Bit rate mode : Constant
Stream size : 0.00 Byte (0%)
CaptionServiceName : CC1

Watch WWE Online

Text #2
ID : 1-CC3
Format : EIA-608
Muxing mode : SCTE 128 / DTVCC Transport
Muxing mode, more info : Muxed in Video #1
Duration : 1 h 15 min
Bit rate mode : Constant
Stream size : 0.00 Byte (0%)
CaptionServiceName : CC3

Text #3
ID : 1-1
Format : EIA-708
Muxing mode : SCTE 128 / DTVCC Transport
Muxing mode, more info : Muxed in Video #1
Duration : 1 h 15 min
Bit rate mode : Constant
Stream size : 0.00 Byte (0%)

 WWE Online

Text #4
ID : 1-2
Format : EIA-708
Muxing mode : SCTE 128 / DTVCC Transport
Muxing mode, more info : Muxed in Video #1
Duration : 1 h 15 min
Bit rate mode : Constant
Stream size : 0.00 Byte (0%)

 

[/su_expand]

 

https://dx-tv.com/

Leave a Reply

Your email address will not be published. Required fields are marked *

This site uses Akismet to reduce spam. Learn how your comment data is processed.