Watch WWE Online The Best Of TLC Free 1080p DX-TV

Watch WWE Online The Best Of TLC 720p /1080p DX-TV

Watch WWE Online

 Watch WWE Online

 

Download Links with premium High Speed   

 

 

dropapk.to

http://shrt10.com/ybWEbVkIw

 

 

nitroflare.com

http://shrt10.com/Lahde
http://shrt10.com/l99QeFJLy

 

 

rapidgator.net

http://shrt10.com/RezNKPJ
http://shrt10.com/XRE5qWVl

 

 

uploaded.net

http://shrt10.com/gTnJhVj3

 

 

uploadgig.com

http://shrt10.com/g2z3O5Gg

 

 

Watch WWE Online 

 

Server 1

 

 

 

 

Watch WWE Online

 

 

 

 

Server-2

 

 

 

 

watch now

 

 

Uploaded By Site DX-TV.com

 

 

 

[su_expand more_text=”Show More Info” less_text=”Close all Info” height=”50″ text_color=”#000000″ link_color=”#e25f8b” link_style=”button” more_icon=”icon: arrow-down” less_icon=”icon: arrow-up”]

Complete name : WWE.The.Best.Of.WWE.E58.The.Best.Of.TLC.720p.WEB.h264-HEEL.mp4
Format : MPEG-4
Format profile : Base Media
File size : 2.72 GiB
Duration : 3 h 48 min
Overall bit rate mode : Variable
Overall bit rate : 1 705 kb/s
Writing application : Lavf58.32.104

Video
ID : 1
Format : AVC
Duration : 3 h 48 min
Bit rate : 1 512 kb/s
Width : 1 280 pixels
Height : 720 pixels
Display aspect ratio : 16:9
Frame rate mode : Constant
Frame rate : 30.000 FPS
Color space : YUV
Chroma subsampling : 4:2:0
Bit depth : 8 bits
Scan type : Progressive
Bits/(Pixel*Frame) : 0.055
Stream size : 2.40 GiB (88%)

Watch WWE Online

Audio
ID : 2
Format : AAC LC
Format/Info : Advanced Audio
Codec ID : mp4a-40-2
Duration : 3 h 48 min
Bit rate mode : Variable
Bit rate : 192 kb/s
Maximum bit rate : 538 kb/s
Channel(s) : 2 channels
Channel layout : L R
Sampling rate : 48.0 kHz
Frame rate : 46.875 FPS
Compression mode : Lossy
Stream size : 315 MiB
Default : Yes
Alternate group : 1

Complete name : WWE.The.Best.Of.WWE.E58.The.Best.Of.TLC.1080p.WEB.h264-DX-TV.mp4
Format : MPEG-4
Format profile : Base Media
Codec ID : isom
File size : 12.7 GiB
Duration : 3 h 48 min
Overall bit rate : 7 965 kb/s
Video
ID : 1
Format : AVC
Duration : 3 h 48 min
Bit rate : 7 808 kb/s
Width : 1 920 pixels
Height : 1 080 pixels
Display aspect ratio : 16:9
Frame rate mode : Constant
Frame rate : 30.000 FPS
Color space : YUV
Chroma subsampling : 4:2:0
Bit depth : 8 bits
Scan type : Progressive
Bits/(Pixel*Frame) : 0.126
Stream size : 12.4 GiB (97%)

Watch WWE Online

Audio
ID : 2
Format : AAC LC
Format/Info : Advanced Audio
Codec ID : mp4a-40-2
Duration : 3 h 48 min
Bit rate mode : Constant
Bit rate : 192 kb/s
Channel(s) : 2 channels
Channel layout : L R
Sampling rate : 48.0 kHz
Frame rate : 46.875 FPS
Compression mode : Lossy
Stream size : 315 MiB
Default : Yes
Alternate group : 1

 

[/su_expand]

 

https://dx-tv.com/

You May Also Like

Leave a Reply

Your email address will not be published. Required fields are marked *

This site uses Akismet to reduce spam. Learn how your comment data is processed.