Watch WWE Free Online Main Event 2021 01 21 1080p

Watch WWE Free Online Main Event 2021 01 21 1080p DX-TV

Watch WWE Free Online

 Watch WWE Free Online

 

Download Links with premium High Speed   

 

 

dropapk.to

http://shrt10.com/nyWjEOL
http://shrt10.com/CmKgdY

 

 

nitroflare.com

http://shrt10.com/W4iaG7
http://shrt10.com/5A9eO

 

 

rapidgator.net

http://shrt10.com/7sJagu8
http://shrt10.com/ERkxVRw7

 

 

uploaded.net

http://shrt10.com/7gQwE
http://shrt10.com/1jHBzSPZ

 

 

uploadgig.com

http://shrt10.com/UuVoiqh
http://shrt10.com/Adp0ByFXI

 

Watch WWE Free online

 

Server 1

 

 

 

 

Watch WWE Free

 

 

 

 

Server-2

 

 

 

 

watch now

 

 

Uploaded By Site DX-TV.com

 

 

Complete name : WWE.Main.Event.2021.01.21.720p.Hulu.x264-Star.mkv
Format : Matroska
Format version : Version 4
File size : 1.38 GiB
Duration : 48 min 16 s
Overall bit rate : 4 099 kb/s

Watch WWE Free

Video
ID : 1
Format : AVC
Format/Info : Advanced Video
Duration : 48 min 16 s
Bit rate : 4 000 kb/s
Width : 1 280 pixels
Height : 720 pixels
Display aspect ratio : 16:9
Frame rate mode : Constant
Frame rate : 29.970 FPS
Color space : YUV
Chroma subsampling : 4:2:0
Bit depth : 8 bits
Scan type : Progressive
Bits/(Pixel*Frame) : 0.145
Stream size : 1.31 GiB (95%)
Forced : No
Color range : Limited
Color primaries : BT.709
Transfer characteristics : BT.709
Matrix coefficients : BT.709

Watch WWE Free

Audio
ID : 2
Format : AC-3
Format/Info : Audio Coding 3
Commercial name : Dolby Digital
Codec ID : A_AC3
Duration : 48 min 16 s
Bit rate mode : Constant
Bit rate : 128 kb/s
Channel(s) : 2 channels
Channel layout : L R
Sampling rate : 48.0 kHz
Frame rate : 31.250 FPS
Compression mode : Lossy
Delay relative to video : -5 ms
Stream size : 44.2 MiB (3%)
Title : Stereo
Service kind : Complete Main
Default : Yes
Forced : No

Complete name : WWE.Main.Event.2021.01.21.1080p.Hulu.x264-Star.mkv
Format : Matroska
Format version : Version 4
File size : 2.72 GiB
Duration : 48 min 16 s
Overall bit rate : 8 074 kb/s

Watch WWE Free

Video
ID : 1
Format : AVC
Format/Info : Advanced Video
Duration : 48 min 16 s
Bit rate : 8 000 kb/s
Width : 1 920 pixels
Height : 1 080 pixels
Display aspect ratio : 16:9
Frame rate mode : Constant
Frame rate : 29.970 FPS
Color space : YUV
Chroma subsampling : 4:2:0
Bit depth : 8 bits
Scan type : Progressive
Bits/(Pixel*Frame) : 0.129
Stream size : 2.63 GiB (96%)
Forced : No
Color range : Limited
Color primaries : BT.709
Transfer characteristics : BT.709
Matrix coefficients : BT.709

Watch WWE Free

Audio
ID : 2
Format : AC-3
Format/Info : Audio Coding 3
Commercial name : Dolby Digital
Codec ID : A_AC3
Duration : 48 min 16 s
Bit rate mode : Constant
Bit rate : 128 kb/s
Channel(s) : 2 channels
Channel layout : L R
Sampling rate : 48.0 kHz
Frame rate : 31.250 FPS
Compression mode : Lossy
Delay relative to video : -5 ms
Stream size : 44.2 MiB (2%)
Title : Stereo
Service kind : Complete Main
Default : Yes
Forced : No

 

 

https://dx-tv.com/

You May Also Like