Watch Wrestling Free Online BJW 2021 01 11 DX-TV

Watch Wrestling Free Online BJW 2021 01 11 720p DX-TV

Watch Wrestling Free Online

 Watch Wrestling Free Online

 

Download Wrestling Free Links with premium High Speed   

 

 

dropapk.to

http://shrt10.com/zxg9Nw8Q

 

 

nitroflare.com

http://shrt10.com/sIK0kE

 

 

rapidgator.net

http://shrt10.com/8WTaQ6VS

 

 

uploaded.net

http://shrt10.com/6jSjaHe02

 

 

uploadgig.com

http://shrt10.com/izal9

 

Watch Wrestling Free online

 

Server 1

 

 

 

 

Watch Wrestling Free

 

 

 

 

Server-2

 

 

 

 

watch now

 

 

Uploaded By Site DX-TV.com

 

 

Complete name : BJW.2021.01.11.Korakuen.Hall.720p.WEB.h264.mp4
Format : MPEG-4
Format profile : Base Media
Codec ID : isom
File size : 1.18 GiB
Duration : 1 h 59 min
Overall bit rate mode : Variable
Overall bit rate : 1 404 kb/s

Watch Wrestling Free

Video
ID : 2
Format : AVC
Format/Info : Advanced Video
Duration : 1 h 59 min
Bit rate : 1 333 kb/s
Width : 1 280 pixels
Height : 720 pixels
Display aspect ratio : 16:9
Frame rate mode : Variable
Frame rate : 29.970 FPS
Standard : Component
Color space : YUV
Chroma subsampling : 4:2:0
Bit depth : 8 bits
Scan type : Progressive
Bits/(Pixel*Frame) : 0.048
Stream size : 1.12 GiB (95%)
Language : English
Color range : Limited
Color primaries : BT.709
Transfer characteristics : BT.709
Matrix coefficients : BT.709
Codec configuration box : avcC

Audio
ID : 1
Format : AAC LC SBR PS
Commercial name : HE-AACv2
Format settings : Implicit
Codec ID : mp4a-40-2
Duration : 1 h 59 min
Bit rate mode : Variable
Bit rate : 62.7 kb/s
Maximum bit rate : 91.0 kb/s
Channel(s) : 2 channels
Channel layout : C
Sampling rate : 48.0 kHz
Frame rate : 23.438 FPS
Compression mode : Lossy
Stream size : 53.8 MiB
Language : English

Watch Wrestling Free

Audio
ID : 1
Format : AAC LC SBR PS
Commercial name : HE-AACv2
Format settings : Implicit
Codec ID : mp4a-40-2
Duration : 1 h 59 min
Bit rate mode : Variable
Bit rate : 62.7 kb/s
Maximum bit rate : 91.0 kb/s
Channel(s) : 2 channels
Channel layout : C
Sampling rate : 48.0 kHz
Frame rate : 23.438 FPS
Compression mode : Lossy
Stream size : 53.8 MiB
Language : English

Watch Wrestling Free

Audio
ID : 1
Format : AAC LC SBR PS
Commercial name : HE-AACv2
Format settings : Implicit
Codec ID : mp4a-40-2
Duration : 1 h 59 min
Bit rate mode : Variable
Bit rate : 62.7 kb/s
Maximum bit rate : 91.0 kb/s
Channel(s) : 2 channels
Channel layout : C
Sampling rate : 48.0 kHz
Frame rate : 23.438 FPS
Compression mode : Lossy
Stream size : 53.8 MiB
Language : English

Watch Wrestling  

 

https://dx-tv.com/

You May Also Like