Watch WWE After The Bell E23 John Cena Full Show Online

WWE After The Bell E23 John Cena 1080p DX-TV

Watch WWE After The Bell 

 

 Watch WWE After The Bell

 

Watch WWE After The Bell E23 John Cena Full Show Online

Complete name : WWE.After.The.Bell.E23.John.Cena.1080p.WEB.h264-HEEL.mp4
Format : MPEG-4
Format profile : Base Media
Codec ID : isom
File size : 2.16 GiB
Duration : 38 min 47 s
Overall bit rate mode : Variable
Overall bit rate : 7 967 kb/s
Writing application : Lavf58.32.104

Watch WWE After The Bell

Video
ID : 1
Format : AVC
Duration : 38 min 47 s
Bit rate : 7 808 kb/s
Width : 1 920 pixels
Height : 1 080 pixels
Display aspect ratio : 16:9
Frame rate mode : Constant
Frame rate : 30.000 FPS
Color space : YUV
Chroma subsampling : 4:2:0
Bit depth : 8 bits
Scan type : Progressive
Bits/(Pixel*Frame) : 0.126
Stream size : 2.10 GiB

Watch WWE After The Bell

Audio
ID : 2
Format : AAC LC
Format/Info : Advanced Audio
Codec ID : mp4a-40-2
Duration : 38 min 47 s
Bit rate mode : Variable
Bit rate : 192 kb/s
Maximum bit rate : 246 kb/s
Channel(s) : 2 channels
Channel layout : L R
Sampling rate : 48.0 kHz
Frame rate : 46.875 FPS (1024 SPF)
Compression mode : Lossy
Stream size : 53.7 MiB (2%)
Default : Yes
Alternate group : 1

 

WWE After The Bell E23 John Cena Full Show Online

 

Watch online

 

 

Server 1

 

 

 

 

 

 

Server-2

Watch WWE After The Bell

 

 

 

 

 

Uploaded By Site DX-TV.com

 

 

 

Download Free Links with normal and high Speed [ more 14 hosts ]  

 

[su_expand more_text=”Show Hosts Info” less_text=”Close all Info” height=”30″ text_color=”#000000″ link_color=”#e25f8b” link_style=”button” more_icon=”icon: arrow-down” less_icon=”icon: arrow-up”]

 

 WWE After The Bell

hexupload.net – clicknupload.co – www.multiup.org – uptobox.com – anonfiles.com – userscloud.com –

dropapk.to alfafile.net – ddownload.com – rockfile.co – 1fichier.com – filedown.org – katfile.com – filerio.in

 

 

[/su_expand]

 

 

http://shrt10.com/M8xHy3
http://shrt10.com/njFR0vNh
http://shrt10.com/cxbbGZJAd
http://shrt10.com/vvFtK
http://shrt10.com/hwMeUTui

 

 

 

 

Download Links with premium High Speed   

 WWE After The Bell

 

 

dropapk.to

 

 

nitroflare.com

 

 

rapidgator.net

 

 

 

uploaded.net

 

 

 

uploadgig.com

 

 

 

 

 

dx-tv.com

 

urlfree.net

Leave a Reply

Your email address will not be published. Required fields are marked *

This site uses Akismet to reduce spam. Learn how your comment data is processed.