Watch WWE NXT UK 12 November 2020 1080p Free Online

Watch WWE NXT UK 2020 11 12 1080p DX-TV

WWE NXT UK 12 November 2020

 

 WWE NXT UK 12 November 2020
 


 

 

Watch WWE NXT UK 12 November 2020 1080p Free Online

 

 

 

 

Complete name : WWE.NXT.UK.2020.11.12.1080p.WEB.h264-HEEL.mp4
Format : MPEG-4
Format profile : Base Media
Codec ID : isom
File size : 2.27 GiB
Duration : 55 min 42 s
Overall bit rate mode : Variable
Overall bit rate : 5 844 kb/s
Writing application : Lavf58.32.104

Video
ID : 1
Format : AVC
Duration : 55 min 42 s
Bit rate : 5 709 kb/s
Width : 1 920 pixels
Height : 1 080 pixels
aspect ratio : 16:9
Frame rate mode : Variable
Frame rate : 30.000 FPS
Color space : YUV
Chroma subsampling : 4:2:0
Bit depth : 8 bits
Scan type : Progressive
Bits/(Pixel*Frame) : 0.092
Stream size : 2.22 GiB (98%)
Codec configuration box : avc

WWE NXT UK 12 November 2020

Audio
ID : 2
Format : AAC LC
Format/Info : Advanced Audio
Codec ID : mp4a-40-2
Duration : 55 min 42 s
Bit rate mode : Variable
Bit rate : 125 kb/s
Maximum bit rate : 133 kb/s
Channel(s) : 2 channels
Channel layout : L R
Sampling rate : 48.0 kHz
Frame rate : 46.875 FPS (1024 SPF)
Compression mode : Lossy
Stream size : 50.0 MiB (2%)
Default : Yes
Alternate group : 1

Text #1
ID : 1-CC1
Format : EIA-608
Muxing mode : SCTE 128 / DTVCC Transport
Muxing mode, more info : Muxed in Video #1
Duration : 55 min 42 s
Bit rate mode : Constant
Stream size : 0.00 Byte (0%)
CaptionServiceName : CC1

WWE NXT UK 12 November 2020

Text #2
ID : 1-T1
Format : EIA-608
Muxing mode : SCTE 128 / DTVCC Transport
Muxing mode, more info : Muxed in Video #1
Duration : 55 min 42 s
Bit rate mode : Constant
Stream size : 0.00 Byte (0%)
CaptionServiceName : T1

Text #3
ID : 1-CC3
Format : EIA-608
Muxing mode : SCTE 128 / DTVCC Transport
Muxing mode, more info : Muxed in Video #1
Duration : 55 min 42 s
Bit rate mode : Constant
Stream size : 0.00 Byte (0%)
CaptionServiceName : CC3

WWE NXT UK 12 November 2020

Text #4
ID : 1-1
Format : EIA-708
Muxing mode : SCTE 128 / DTVCC Transport
Muxing mode, more info : Muxed in Video #1
Duration : 55 min 42 s
Bit rate mode : Constant
Stream size : 0.00 Byte (0%)

Text #5
ID : 1-2
Format : EIA-708
Muxing mode : SCTE 128 / DTVCC Transport
Muxing mode, more info : Muxed in Video #1
Duration : 55 min 42 s
Bit rate mode : Constant
Stream size : 0.00 Byte (0%)

Text #6
ID : 1-3
Format : EIA-708
Muxing mode : SCTE 128 / DTVCC Transport
Muxing mode, more info : Muxed in Video #1
Duration : 55 min 42 s
Bit rate mode : Constant
Stream size : 0.00 Byte (0%)

WWE NXT UK 12 November 2020

Text #7
ID : 1-4
Format : EIA-708
Muxing mode : SCTE 128 / DTVCC Transport
Muxing mode, more info : Muxed in Video #1
Duration : 55 min 42 s
Bit rate mode : Constant
Stream size : 0.00 Byte (0%)

Text #8
ID : 1-5
Format : EIA-708
Muxing mode : SCTE 128 / DTVCC Transport
Muxing mode, more info : Muxed in Video #1
Duration : 55 min 42 s
Bit rate mode : Constant
Stream size : 0.00 Byte (0%)

WWE NXT UK 12 November 2020

Text #9
ID : 1-6
Format : EIA-708
Muxing mode : SCTE 128 / DTVCC Transport
Muxing mode, more info : Muxed in Video #1
Duration : 55 min 42 s
Bit rate mode : Constant
Stream size : 0.00 Byte (0%)

 

 

 

Watch WWE NXT UK 12 November 2020 1080p Free Online

 

Watch online

 

 

Server 1

 

 

 

 

 

 

 

 

Server-2

 

 

 

 

 

 

 

 

 

Uploaded By Site DX-TV.com

 

 

 

 

Download Free Links with normal and high Speed [ more 14 hosts ]  

 

[su_expand more_text=”Show Hosts Info” less_text=”Close all Info” height=”30″ text_color=”#000000″ link_color=”#e25f8b” link_style=”button” more_icon=”icon: arrow-down” less_icon=”icon: arrow-up”]

 

 NXT UK 12 November 2020

hexupload.net – clicknupload.co – www.multiup.org – uptobox.com – anonfiles.com – userscloud.com –

dropapk.to alfafile.net – ddownload.com – rockfile.co – 1fichier.com – filedown.org – katfile.com – filerio.in

 

 

[/su_expand]

 

 

720p

 

http://shrt10.com/s1edchpu
http://shrt10.com/LJ7QXYR
http://shrt10.com/jZ0uYviH0
http://shrt10.com/aUWeRhLjo
http://shrt10.com/iwYtR0NPd
http://shrt10.com/xvJH2LB
http://shrt10.com/eJ6Af
http://shrt10.com/VfHb3Q

 

 

 

1080p

http://shrt10.com/cG5bJ
http://shrt10.com/jSqkScm9
http://shrt10.com/w6qOTTKLm
http://shrt10.com/Hzairjpq9
http://shrt10.com/cJ9bNJFo4

 

 NXT UK 12 November 2020

 

Download Links with premium High Speed   

 

 

 

 

dropapk.to

http://shrt10.com/UICb5PbH
http://shrt10.com/sx23MS8L

 

 

nitroflare.com

http://shrt10.com/vrxiO
http://shrt10.com/r0C9ZAvWA

 

 

rapidgator.net

http://shrt10.com/dE8JF
http://shrt10.com/vuAWuz

 

 

uploaded.net

http://shrt10.com/lN0ku7piL
http://shrt10.com/H7CGl130

 

 

uploadgig.com

http://shrt10.com/Rk28q
http://shrt10.com/3FIbhNeP

 

 

 

 

dx-tv.com

 

urlfree.net

Leave a Reply

Your email address will not be published. Required fields are marked *

This site uses Akismet to reduce spam. Learn how your comment data is processed.