Watch Wrestling WWE Raw 23 11 2020 Free Online DX-TV

Watch Wrestling WWE Raw 23 11 2020 HDTV Star DX-TV

 

Watch Wrestling WWE Raw

 WWE RAW

 

[su_expand more_text=”Show More Info” less_text=”Close all Info” height=”30″ text_color=”#000000″ link_color=”#e25f8b” link_style=”button” more_icon=”icon: arrow-down” less_icon=”icon: arrow-up”]

WWE Raw

 

Complete name : WWE.Monday.Night.Raw.2020.11.23.HDTV.x264-Star.mp4
Format : MPEG-4
Format profile : Base Media
Codec ID : mp42
File size : 1.35 GiB
Duration : 2 h 11 min
Overall bit rate : 1 468 kb/s

Watch Wrestling WWE Raw

Video
ID : 1
Format : AVC
Duration : 2 h 11 min
Bit rate : 1 300 kb/s
Width : 720 pixels
Height : 480 pixels
Display aspect ratio : 16:9
Original display aspect rat : 16:9
rate mode : Constant
Frame rate : 29.970 FPS
Standard : NTSC
Color space : YUV
Chroma sampling : 4:2:0
Bit depth : 8 bits
Scan type : Progressive
Bits/(Pixel*Frame) : 0.126
Stream size : 1.19 GiB (89%)
Color range : Limited
Color primaries : BT.601 NTSC
Transfer characteristics : BT.709
Matrix coefficients : BT.601
Codec configuration box : avc

Watch Wrestling WWE Raw

Audio
ID : 2
Format : AAC LC
Format/Info : Advanced Audio
Codec ID : mp4a-40-2
Duration : 2 h 11 min
Bit rate mode : Constant
Bit rate : 159 kb/s
Channel(s) : 2 channels
Channel layout : L R
Sampling rate : 48.0 kHz
Frame rate : 46.875 FPS (1024 SPF)
Compression mode : Lossy
Stream size : 150 MiB (11%)
Title : Stereo
Default : Yes

Watch Wrestling WWE Raw

 

Asuka & Lana def. Nia Jax & Shayna Baszler – Non-Title Match

A night after very different outcomes, Asuka and Lana met in a Raw Women’s Championship Match. The match was quickly derailed by the presence of Nia Jax & Shayna Baszler.

and a tag team match ensued after their challenge. The Empress of Tomorrow did her best to fend off the Women’s Tag Team Champions, but Baszler trapped Lana in the Kirifuda Clutch.

As the match seemed headed for a conclusion, Asuka swooped in to roll-up Baszler to get the win and help Lana escape without a crash through the announce table.

[/su_expand]

 

 

Watch online Wrestling WWE

 

 

 

Server 1

 

 

 

 

 

 

 

 

Server-2

 

 

 

 

 

 

Watch Wrestling WWE

 

Uploaded By Site DX-TV.com

 

 

watch-njpw-g1-climax-29-30-07-2019-day-11-live-stream

 

Download Free Links with normal and high Speed [ more 14 hosts ]  

 

[su_expand more_text=”Show Hosts Info” less_text=”Close all Info” height=”30″ text_color=”#000000″ link_color=”#e25f8b” link_style=”button” more_icon=”icon: arrow-down” less_icon=”icon: arrow-up”]

Wrestling WWE Raw

 

hexupload.net – clicknupload.co – www.multiup.org

– uptobox.com – anonfiles.com – userscloud.com –

dropapk.to alfafile.net – ddownload.com – rockfile.co

– 1fichier.com – filedown.org – katfile.com – filerio.in

 

 

[/su_expand]

 

http://shrt10.com/3QF75Mo
http://shrt10.com/yDRx8Ft
http://shrt10.com/UxumBT0k
http://shrt10.com/8QbV3w
http://shrt10.com/bXcOAJo
http://shrt10.com/m3Y0E1
http://shrt10.com/LqK4rL
http://shrt10.com/cNXBAQ

 

 

 Wrestling WWE Raw

 

Download Links with premium High Speed   

 

 

 

 

dropapk.to

 

 

 

nitroflare.com

 

 

 

rapidgator.net

 

 

 

uploaded.net

 

 

 

uploadgig.com

 

 

Watch Wrestling WWE Raw

You May Also Like

Leave a Reply

Your email address will not be published. Required fields are marked *

This site uses Akismet to reduce spam. Learn how your comment data is processed.