Watch Wrestling UFC Fight Night 183 Prelims Free Online

Wrestling UFC Fight Night 183 Prelims Free Online DX-TV

UFC Fight Night 183 Free

 

 UFC Fight Night 183 Free

 

Watch Wrestling UFC Fight Night 183 Prelims Free Online

 

Complete name : UFC.Fight.Night.Nov.14th.2020.Prelims.WEB.h264-DaShield.mp4
Format : MPEG-4
Format profile : Base Media
Codec ID : isom
File size : 1.49 GiB
Duration : 1 h 59 min
Overall bit rate mode : Variable
Overall bit rate : 1 774 kb/s

UFC Fight Night 183 Free

Video
ID : 1
Format : AVC
Duration : 1 h 59 min
Bit rate mode : Variable
Bit rate : 1 633 kb/s
Maximum bit rate : 1 663 kb/s
Width : 896 pixels
Height : 504 pixels
Display aspect ratio : 16:9
Frame rate mode : Variable
Frame rate : 30.000 FPS
Minimum frame rate : 29.412 FPS
Maximum frame rate : 30.303 FPS
Standard : NTSC
Color space : YUV
Chroma subsampling : 4:2:0
Bit depth : 8 bits
Scan type : Progressive
Bits/(Pixel*Frame) : 0.121
Stream size : 1.37 GiB (92%)
Color range : Limited
Color primaries : BT.709
Transfer characteristics : BT.709
Matrix coefficients : BT.709
Codec configuration box : avc

UFC Fight Night 183 Free

Audio
ID : 2
Format : AAC LC
Format/Info : Advanced Audio
Codec ID : mp4a-40-2
Duration : 1 h 59 min
Bit rate mode : Variable
Bit rate : 132 kb/s
Maximum bit rate : 200 kb/s
Channel(s) : 2 channels
Channel layout : L R
Sampling rate : 48.0 kHz
Frame rate : 46.875 FPS (1024 SPF)
Compression mode : Lossy
Stream size : 113 MiB (7%)
Default : Yes
Alternate group : 1

UFC Fight Night 183 Free

The UFC returns for its latest offering on Saturday night with UFC Fight Night from the UFC Apex in Las Vegas.

as No. 7-ranked Paul Felder takes on former lightweight champion Rafael dos Anjos.

Initially, the main event was set to be dos Anjos facing No. 12-ranked Islam Makhachev. But on Sunday evening,

Makhachev had to pull out with an undisclosed injury. Needing someone to fill out the spot, the UFC offered Felder the bout.

It didn’t take Felder long to accept, and he’ll be going from wearing a suit .

and broadcasting the event to putting on the four-ounce gloves in the five-round affair.

 

 

 

 

Watch Wrestling UFC Fight Night 183 Prelims Free Online

 

Watch online

 

 

Server 1

 

 

 

 

 

 

 

 

Server-2

 

UFC Fight Night 183 Free

 

 

 

 

 

Uploaded By Site DX-TV.com

 

 

 

 

Download Free Links with normal and high Speed [ more 14 hosts ]  

 

[su_expand more_text=”Show Hosts Info” less_text=”Close all Info” height=”30″ text_color=”#000000″ link_color=”#e25f8b” link_style=”button” more_icon=”icon: arrow-down” less_icon=”icon: arrow-up”]

 Fight Night 183 Free

 

hexupload.net – clicknupload.co – www.multiup.org

– uptobox.com – anonfiles.com – userscloud.com –

dropapk.to alfafile.net – ddownload.com – rockfile.co

– 1fichier.com – filedown.org – katfile.com – filerio.in

 

 

[/su_expand]

 

 

 

http://shrt10.com/AxOGKoaey
http://shrt10.com/9gFhK6zRO
http://shrt10.com/mOZSw7X2
http://shrt10.com/cfmVmU
http://shrt10.com/iQPsErXh
http://shrt10.com/FGme96
http://shrt10.com/jpO6D
http://shrt10.com/hGq0KTVG

 

 

 

Download Links with premium High Speed   

 

 

 

 

dropapk.to

 

 

 

nitroflare.com

 

 

 

rapidgator.net

 

 

 

uploaded.net

 

 

 

uploadgig.com

 

 

 

 

 

dx-tv.com

 

urlfree.net

You May Also Like

Leave a Reply

Your email address will not be published. Required fields are marked *

This site uses Akismet to reduce spam. Learn how your comment data is processed.