UFC Fight Night Felder vs Dos Anjos Prelims 720p Free Online

Watch UFC Fight Night Felder vs Dos Anjos Prelims 720p Free Online DX-TV

UFC Fight Night Felder vs Dos Anjos

 

 UFC Fight Night Felder vs Dos Anjos

 

UFC Fight Night Felder vs Dos Anjos Prelims 720p Free Online

 

Complete name : UFC.Fight.Night.Nov.14th.2020.Prelims.720p.WEB.h264-DaShield.mp4
Format : MPEG-4
Format profile : Base Media
Codec ID : isom
File size : 2.69 GiB
Duration : 1 h 59 min
Overall bit rate mode : Variable
Overall bit rate : 3 204 kb/s

UFC Fight Night Felder vs Dos Anjos

Video
ID : 1
Format : AVC
Format/Info : Advanced
Duration : 1 h 59 min
Bit rate mode : Variable
Bit rate : 3 064 kb/s
Maximum bit rate : 3 159 kb/s
Width : 1 280 pixels
Height : 720 pixels
Display aspect ratio : 16:9
Frame rate mode : Variable
Frame rate : 30.000 FPS
Minimum frame rate : 29.412 FPS
Maximum frame rate : 30.303 FPS
Standard : NTSC
Color space : YUV
Chroma subsampling : 4:2:0
Bit depth : 8 bits
Scan type : Progressive
Bits/(Pixel*Frame) : 0.111
Stream size : 2.57 GiB (96%)
Color range : Limited
Color primaries : BT.709
Transfer characteristics : BT.709
Matrix coefficients : BT.709
Codec configuration box : avc

UFC Fight Night Felder vs Dos Anjos

Audio
ID : 2
Format : AAC LC
Format/Info : Advanced Audio
Codec ID : mp4a-40-2
Duration : 1 h 59 min
Bit rate mode : Variable
Bit rate : 132 kb/s
Maximum bit rate : 200 kb/s
Channel(s) : 2 channels
Channel layout : L R
Sampling rate : 48.0 kHz
Frame rate : 46.875 FPS
Compression mode : Lossy
Stream size : 113 MiB (4%)
Default : Yes
Alternate group : 1

UFC Fight Night Felder vs  Anjos

Felder, who has won five of his last seven, last fought in February, losing a very competitive split-decision to top contender Dan Hooker.

Afterwards, Felder was seriously considering retirement and would only come back if the right offer came along. 

“With everything going on in the world, the sad things going on in people’s lives — losing their jobs and suffering.

We just lost Alex Trebek to pancreatic cancer,” Felder said to ESPN. “I was like, ‘Man, you’re still 35. You’re young.

You’re in shape. Save the day. Let’s go get paid, let’s have fun. You’re fighting a legend.’ What do I have to lose?”

Dos Anjos moves back down to 155 pounds after struggling at welterweight as he’s lost four of his last five fights.

But those defeats came against top contenders Michael Chiesa, Leon Edwards.

 

UFC Fight Night Felder vs Dos  Prelims 720p Free Online

 

Watch online

 

 

Server 1

 

 

 

 

 

 

 

 Fight Night Felder vs Dos Anjos

Server-2

 

 

 

 

 

 

 

 

Uploaded By Site DX-TV.com

 

 

 

 

Download Free Links with normal and high Speed [ more 14 hosts ]  

 

[su_expand more_text=”Show Hosts Info” less_text=”Close all Info” height=”30″ text_color=”#000000″ link_color=”#e25f8b” link_style=”button” more_icon=”icon: arrow-down” less_icon=”icon: arrow-up”]

 

 Fight Night Felder vs Dos Anjos

hexupload.net – clicknupload.co – www.multiup.org

– uptobox.com – anonfiles.com – userscloud.com –

dropapk.to alfafile.net – ddownload.com – rockfile.co

– 1fichier.com – filedown.org – katfile.com – filerio.in

 

 

[/su_expand]

 

 

http://shrt10.com/XiNVH
http://shrt10.com/yscm0
http://shrt10.com/oagy1ME
http://shrt10.com/z95Up
http://shrt10.com/If6eM45qw
http://shrt10.com/006TJx

 

 

 

Download Links with premium High Speed   

 

 

 

 

dropapk.to

 

 

 

nitroflare.com

 

 

 

rapidgator.net

 

 

 

uploaded.net

 

 

 

uploadgig.com

 

 

 

 

 

dx-tv.com

 

urlfree.net

You May Also Like

Leave a Reply

Your email address will not be published. Required fields are marked *

This site uses Akismet to reduce spam. Learn how your comment data is processed.