Watch UFC Fight Night 150 Weigh Ins 720p WEBRip TJ full show free mp4

 

 

 

 


 

 

 

dx-tv.com

 

 

 

 

 

Complete name : UFC.Fight.Night.150.Weigh-Ins.720p.WEBRip.h264-TJ.mp4
Format : MPEG-4
Format profile : Base Media
File size : 747 MiB
Duration : 24 min 16 s
Overall bit rate : 4 299 kb/s
Writing application : Lavf57.83.100

Video
ID : 1
Format : AVC
Format/Info : Advanced Video Codec
Format settings, Reference : 3 frames
Codec ID : avc1
Codec ID/Info : Advanced Video Coding
Duration : 24 min 16 s
Bit rate : 4 160 kb/s
Width : 1 280 pixels
Height : 720 pixels
Display aspect ratio : 16:9
Frame rate mode : Constant
Frame rate : 29.970 (30000/1001) FPS
Original frame rate : 29.970 (29970/1000) FPS
Color space : YUV
Chroma subsampling : 4:2:0
Bit depth : 8 bits
Scan type : Progressive
Bits/(Pixel*Frame) : 0.151
Stream size : 722 MiB (97%)
Codec configuration box : avcC

Audio
ID : 2
Format : AAC LC
Format/Info : Advanced Audio Codec Low Complexity
Codec ID : mp4a-40-2
Duration : 24 min 16 s
Bit rate mode : Constant
Bit rate : 132 kb/s
Channel(s) : 2 channels
Channel layout : L R
Sampling rate : 44.1 kHz
Frame rate : 43.066 FPS (1024 SPF)
Compression mode : Lossy
Stream size : 22.5 MiB (3%)
Default : Yes
Alternate group : 1

 

 

 

 

 


 

 

 

Watch UFC Fight Night 150 Weigh Ins 720p WEBRip TJ full show free mp4

 

 

 

 

Watch online

 

 

Waiting finish converting video

 

 

Server 1

 

 

 

 

 


 

 

 


 

 


 

 

 

Uploaded By Site DX-TV.com

 

 

 

open rar file to see this password

 

 

 

 

The password : DX-TV.com

 

 

 

 

Uploaded.net + rapidgator.net + DDL.to + katfile.com

 

 

 

 


 

 

 
https://shrt10.com/INBwXcyL
 

 

https://shrt10.com/ppVW6b5
 

 

https://shrt10.com/hFB3FqB
 

 

https://shrt10.com/HGEbZj8c
 

 

 

 

 

Watch UFC Fight Night 150 Weigh Ins 720p WEBRip TJ full show free mp4