Watch Titan FC 54 WEB DL TauRuS full show free mp4

 

 

 

 


 

 

 

dx-tv.com

 

 

 

 

 

Complete name : Titan.FC.54.WEB-DL.h264-TauRuS.mp4
Format : MPEG-4
Format profile : Base Media
Codec ID : isom (isom/iso2/avc1/mp41)
File size : 2.71 GiB
Duration : 4 h 15 min
Overall bit rate mode : Variable
Overall bit rate : 1 518 kb/s
Writing application : Lavf58.26.100

Video
ID : 1
Format : AVC
Format/Info : Advanced Video Codec
Format settings, Reference : 3 frames
Codec ID : avc1
Codec ID/Info : Advanced Video Coding
Duration : 4 h 15 min
Bit rate : 1 428 kb/s
Width : 960 pixels
Height : 540 pixels
Display aspect ratio : 16:9
Frame rate mode : Variable
Frame rate : 29.970 (29970/1000) FPS
Minimum frame rate : 14.985 FPS
Maximum frame rate : 29.970 FPS
Color space : YUV
Chroma subsampling : 4:2:0
Bit depth : 8 bits
Scan type : Progressive
Bits/(Pixel*Frame) : 0.092
Stream size : 2.55 GiB (94%)
Codec configuration box : avcC

Audio
ID : 2
Format : AAC LC
Format/Info : Advanced Audio Codec Low Complexity
Codec ID : mp4a-40-2
Duration : 4 h 15 min
Bit rate mode : Variable
Bit rate : 81.1 kb/s
Maximum bit rate : 87.2 kb/s
Channel(s) : 2 channels
Channel layout : L R
Sampling rate : 44.1 kHz
Frame rate : 43.066 FPS (1024 SPF)
Compression mode : Lossy
Stream size : 148 MiB (5%)
Language : English
Default : Yes
Alternate group : 1

 

 

 

 

 


 

 

 

Watch Titan FC 54 WEB DL TauRuS full show free mp4

 

 

 

 

Watch online

 

 

Waiting finish converting video

 

 

Server 1

 

 

 

 

 


 

 

 


 

 


 

 

 

Uploaded By Site DX-TV.com

 

 

 

open rar file to see this password

 

 

 

 

The password : DX-TV.com

 

 

 

 

Uploaded.net + rapidgator.net + DDL.to + katfile.com

 

 

 

 


 

 

 
https://shrt10.com/ljm8

 

 

 

 
https://shrt10.com/ke2RvWqS
 

 

 

 

Watch Titan FC 54 WEB DL TauRuS full show free mp4