Watch UFC 237 Prelims 1080p WEB WD free full show online

Watch UFC 237 Prelims 1080p WEB WD free full show online

 

 

 

 


 

 

 

dx-tv.com

 

 

 

 

Complete name : UFC.237.Prelims.1080p.WEB-WDTeam.mp4
Format : MPEG-4
Format profile : Base Media
Codec ID : isom (isom)
File size : 4.25 GiB
Duration : 1 h 54 min
Overall bit rate mode : Variable
Overall bit rate : 5 306 kb/s
Encoded date : UTC 2019-05-11 01:59:32
Tagged date : UTC 2019-05-11 01:59:32

Video
ID : 1
Format : AVC
Format/Info : Advanced Video Codec
Format settings, Reference : 4 frames
Codec ID : avc1
Codec ID/Info : Advanced Video Coding
Duration : 1 h 54 min
Source duration : 1 h 54 min
Bit rate : 4 895 kb/s
Width : 1 920 pixels
Height : 1 080 pixels
Display aspect ratio : 16:9
Frame rate mode : Constant
Frame rate : 50.000 FPS
Color space : YUV
Chroma subsampling : 4:2:0
Bit depth : 8 bits
Scan type : Progressive
Bits/(Pixel*Frame) : 0.047
Stream size : 3.92 GiB (92%)
Source stream size : 4.09 GiB (96%)
Tagged date : UTC 2019-05-11 02:00:35
Codec configuration box : avcC

Audio
ID : 2
Format : AAC LC
Format/Info : Advanced Audio Codec Low Complexity
Codec ID : mp4a-40-2
Duration : 1 h 54 min
Bit rate mode : Variable
Bit rate : 192 kb/s
Maximum bit rate : 210 kb/s
Channel(s) : 2 channels
Channel layout : L R
Sampling rate : 48.0 kHz
Frame rate : 46.875 FPS (1024 SPF)
Compression mode : Lossy
Stream size : 160 MiB (4%)
Default : Yes
Alternate group : 1
Tagged date : UTC 2019-05-11 02:00:35

 

 

 

 

 


 

 

 

Watch UFC 237 Prelims 1080p WEB WD free full show online

 

 

 

 

Watch online

 

 

Waiting finish converting video

 

 

Server 1

 

 

 

 

 


 

 

 

 

 

 


 

 

Server 2

 

 

 

 

 


 

 

 

 


 

 

 

Uploaded By Site DX-TV.com

 

 

 

open rar file to see this password

 

 

 

 

The password : DX-TV.com

 

 

 


 

 

 

https://shrt10.com/EFWyrSKg
 

 
https://shrt10.com/uuhI
 

 
https://shrt10.com/rTWMF5F
 

 
https://shrt10.com/hKRQUI

 

 

 

 

 

Watch UFC 237 Prelims 1080p WEB WD free full show online

Leave a Reply

Your email address will not be published. Required fields are marked *