Watch UFC 237 Prelims WEB HD DX-TV free full show online

Watch UFC 237 Prelims WEB HD DX-TV free full show online

 

 

 

 


 

 

dx-tv.com

 

 

 

 

 

Complete name : UFC.237.Prelims.WEB HD DX-TV.mp4
Format : MPEG-4
Format profile : Base Media / Version 2
Codec ID : mp42 (mp42)
File size : 1.71 GiB
Duration : 1 h 54 min
Overall bit rate : 2 133 kb/s
Codirector : codirector
Production studio : studio
ContentType : Unknown Type
Encoded date : UTC 2019-05-12 03:42:05
Tagged date : UTC 2019-05-12 03:42:05

Video
ID : 1
Format : AVC
Format/Info : Advanced Video Codec
Codec ID : avc1
Codec ID/Info : Advanced Video Coding
Duration : 1 h 54 min
Bit rate : 1 998 kb/s
Width : 960 pixels
Height : 540 pixels
Display aspect ratio : 16:9
Frame rate mode : Constant
Frame rate : 29.970 (30000/1001) FPS
Color space : YUV
Chroma subsampling : 4:2:0
Bit depth : 8 bits
Scan type : Progressive
Bits/(Pixel*Frame) : 0.129
Stream size : 1.60 GiB (94%)
Language : English
Codec configuration box : avcC

Audio
ID : 2
Format : AAC LC
Format/Info : Advanced Audio Codec Low Complexity
Codec ID : mp4a-40-2
Duration : 1 h 54 min
Bit rate mode : Constant
Bit rate : 128 kb/s
Channel(s) : 2 channels
Channel layout : L R
Sampling rate : 48.0 kHz
Frame rate : 46.875 FPS (1024 SPF)
Compression mode : Lossy
Stream size : 105 MiB (6%)
Title : Stereo
Language : English
Default : Yes
Alternate group : 1

 

 

 

 

 

Watch UFC 237 Prelims WEB HD DX-TV free full show online

 

 

 

 

Watch online

 

 

Waiting finish converting video

 

 

Server 1

 

 

 

 

 

 


 

Server 2

 

 

 

 

 


Uploaded By Site DX-TV.com

 

 

 

open rar file to see this password

 

 

 

 

The password : DX-TV.com

 

 

 


https://shrt10.com/MIRBRx
 

 
https://shrt10.com/C072sUs
 

 
https://shrt10.com/p7VK
 

 
https://shrt10.com/BZOpl

 

 

 

 

 

Watch UFC 237 Prelims WEB HD DX-TV free full show online

Author: snaw90

Leave a Reply

Your email address will not be published. Required fields are marked *