Watch Starrcast IV Unhinged jon moxley story 11/08/2019 DX-TV

Watch Starrcast IV Unhinged jon moxley story 11/08/2019 DX-TV

 

 

 

 

 

 

dx-tv.com

 

 

 

 

Watch Starrcast IV Unhinged jon moxley story 11/08/2019 DX-TV

 

 

 

 

 

Complete name : Starrcast IV Unhinged jon moxley story 11-08-2019 WEB x264 DX-TV.mp4
Format : MPEG-4
Format profile : Base Media / Version 2
Codec ID : mp42 (mp42)
File size : 1.32 GiB
Duration : 59 min 33 s
Overall bit rate : 3 176 kb/s

Video
ID : 1
Format : AVC
Format/Info : Advanced Video Codec
Codec ID : avc1
Codec ID/Info : Advanced Video Coding
Duration : 59 min 33 s
Bit rate : 2 976 kb/s
Width : 960 pixels
Height : 540 pixels
Display aspect ratio : 16:9
Frame rate mode : Constant
Frame rate : 30.000 FPS
Color space : YUV
Chroma subsampling : 4:2:0
Bit depth : 8 bits
Scan type : Progressive
Bits/(Pixel*Frame) : 0.191
Stream size : 1.24 GiB (94%)
Language : English
Codec configuration box : avcC

Audio
ID : 2
Format : AAC LC
Format/Info : Advanced Audio Codec Low Complexity
Codec ID : mp4a-40-2
Duration : 59 min 33 s
Bit rate mode : Constant
Bit rate : 192 kb/s
Channel(s) : 2 channels
Channel layout : L R
Sampling rate : 44.1 kHz
Frame rate : 43.066 FPS (1024 SPF)
Compression mode : Lossy
Stream size : 81.8 MiB (6%)
Title : Stereo
Language : English
Default : Yes
Alternate group : 1

 

Rising from the bloody depths of the death match to global acclaim, Jon Moxley has left no building destroyed and no bridged nuked.

The Voice of Wrestling Jim Ross sits down in conversation with one of the most controversial souls to step inside the squared circle –

this will be the Jon Moxley Story, unedited, unscripted and not for the faint of heart. With the straitjacket of PG wrestling torn apart,

the intense fire that drives Jon Moxley will never be quelled and certainly, controversy will follow this ferocious conversation!

 

 

 

 

 

Watch online

 

 

Waiting finish converting video

 

 

Server 1

 

 

 

 

 

 

 


 

 

 

Server 2

 

 

 

 

 

 

 

 

 

 

 

 

 

 

 

Uploaded By Site DX-TV.com

 

 

 

 

 

Watch Starrcast IV Unhinged jon moxley story 11/08/2019 DX-TV

 

 

 

 

 

 

Recommended For Free

 

 

 

 

earn4files.com

 

 

 

clicknupload.org

 

 

 

 

 

Download with high speed with Premium account

 

 

 

 

nitroflare.com

 

 

 

rapidgator.net

 

 

 

uploaded.net

 

 

 

 

 

Leave a Reply

Your email address will not be published. Required fields are marked *

This site uses Akismet to reduce spam. Learn how your comment data is processed.