Watch Starrcast IV A Boy and His Dinosaur 11/08/2019

Watch Starrcast IV A Boy and His Dinosaur 11/08/2019 DX-TV

 

 

wwe raw

 

 

 

 

dx-tv.com

 

 

 

 

Watch Starrcast IV A Boy and His Dinosaur 11/08/2019

 

 

 

 

 

Complete name : Starrcast IV A Boy and His Dinosaur 11-08-2019 WEB x264 DX-TV.mp4
Format : MPEG-4
Format profile : Base Media
Codec ID : isom
File size : 931 MiB
Duration : 41 min 3 s
Overall bit rate : 3 169 kb/s
Writing application : Lavf57.84.100

Video
ID : 1
Format : AVC
Duration : 41 min 3 s
Bit rate : 3 000 kb/s
Width : 1 280 pixels
Height : 720 pixels
Display aspect ratio : 16:9
Frame rate mode : Constant
Frame rate : 30.000 FPS
Color space : YUV
Chroma subsampling : 4:2:0
Bit depth : 8 bits
Scan type : Progressive
Bits/(Pixel*Frame) : 0.109
Stream size : 881 MiB (95%)

Audio
ID : 2
Format : AAC LC
Format/Info : Advanced Audio Codec Low Complexity
Codec ID : mp4a-40-2
Duration : 41 min 3 s
Bit rate mode : Constant
Bit rate : 161 kb/s
Channel(s) : 2 channels
Channel layout : L R
Sampling rate : 44.1 kHz
Frame rate : 43.066 FPS (1024 SPF)
Compression mode : Lossy
Stream size : 47.2 MiB (5%)
Title : simple_aac
Default : Yes
Alternate group : 1

 

 

 

 

 

 

Watch online

 

 

Waiting finish converting video

 

 

Server 1

 

 

 

 

 

 

 

 

 

 

 

 

 

Server 2

 

 

 

 

 

 

 


 

 

 

 

 

 

Uploaded By Site DX-TV.com

 

 

 

 

 

Watch Starrcast IV A Boy and His Dinosaur 11/08/2019

 

 

 

 

 

 

Recommended For Free

 

 

clicknupload.org

 

earn4files.com

 

 

 

Download with high speed with Premium account

 

 

 

 

nitroflare.com

 

 

 

rapidgator.net

 

 

 

uploaded.net

 

 

 

 

 

 

 

Leave a Reply

Your email address will not be published. Required fields are marked *

seventeen − three =