Watch ROH Saturday Night At Center Stage Atlanta 2020 1080p

Watch ROH 2020 01 11 Saturday Night At Center Stage Atlanta 1080p DX-TV

 

 

ROH

 

 

 

 

dx-tv.com

 

 

 

 

Watch ROH Saturday Night At Center Stage Atlanta 2020 01 11 1080p

 

 

 

 

 

Complete name : ROH.2020.01.11.Saturday.Night.At.Center.Stage.Atlanta.1080p.WEB.h264-HEEL.mp4
Format : MPEG-4
Format profile : Base Media
File size : 4.66 GiB
Duration : 2 h 45 min
Overall bit rate : 4 038 kb/s
Writing application : Lavf58.32.104

Video
ID : 1
Format : AVC
Duration : 2 h 45 min
Bit rate : 3 900 kb/s
Width : 1 920 pixels
Height : 1 080 pixels
Display aspect ratio : 16:9
Frame rate mode : Variable
Frame rate : 30.000 FPS
Minimum frame rate : 7.463 FPS
Maximum frame rate : 30.303 FPS
Color space : YUV
Chroma subsampling : 4:2:0
Bit depth : 8 bits
Scan type : Progressive
Bits/(Pixel*Frame) : 0.063
Stream size : 4.50 GiB (97%)
Codec configuration box : avcC

Audio
ID : 2
Format : AAC LC
Format/Info : Advanced Audio Codec Low Complexity
Codec ID : mp4a-40-2
Duration : 2 h 45 min
Bit rate mode : Constant
Bit rate : 127 kb/s
Channel(s) : 2 channels
Channel layout : L R
Sampling rate : 48.0 kHz
Frame rate : 46.875 FPS (1024 SPF)
Compression mode : Lossy
Stream size : 150 MiB (3%)
Default : Yes
Alternate group : 1

 

 

Watch online

 

 

Server 1

 

 

 

watch now

 

 

 

 

 

Watch ROH Saturday Night At Center Stage Atlanta 2020 01 11 1080p

 

 

 

Uploaded By Site DX-TV.com

 

 

 

 

 

Download VIP Members FTP server Download 1 Link and Free Links 

 

 

 

Limited Time will be removed after 90 days if you need available again pm email admin

 

This section is only available to registered users.

 

1fichier.com 

 

earn4files.com

 

 

 

Download with premium account Links 

 

 

nitroflare.com

 

 

rapidgator.net

 

 

uploaded.net

 

 

 

 

 

 

 

 

 

Categories



Archives