Watch Online DDT Wrestle Shiokobu 2020 01 12

Watch Online DDT Wrestle Shiokobu 2020 01 12 DX-TV

 

 

DDT

 

 

 

 

dx-tv.com

 

 

 

 

Watch Online DDT Wrestle Shiokobu 2020 01 12

 

 

 

 

 

Complete name : DDT.2020.01.12.Wrestle.Shiokobu.2020.JAPANESE.WEB.h264-LATE.mkv
Format : Matroska
Format version : Version 4
File size : 2.20 GiB
Duration : 2 h 51 min
Overall bit rate : 1 843 kb/s
Video
ID : 1
Format : AVC
Duration : 2 h 51 min
Bit rate : 1 744 kb/s
Width : 960 pixels
Height : 540 pixels
Display aspect ratio : 16:9
Frame rate mode : Constant
Frame rate : 30.000 FPS
Color space : YUV
Chroma subsampling : 4:2:0
Bit depth : 8 bits
Scan type : Progressive
Bits/(Pixel*Frame) : 0.112
Stream size : 2.08 GiB (95%)
Default : Yes
Forced : No
Color range : Limited
Color primaries : BT.601 PAL
Transfer characteristics : BT.601
Matrix coefficients : BT.470 System B/G

Audio
ID : 2
Format : AAC LC
Codec ID : A_AAC-2
Duration : 2 h 51 min
Bit rate : 96.0 kb/s
Channel(s) : 2 channels
Channel layout : L R
Sampling rate : 44.1 kHz
Frame rate : 43.066 FPS (1024 SPF)
Compression mode : Lossy
Delay relative to video : -166 ms
Stream size : 118 MiB (5%)
Language : English
Default : Yes
Forced : No

 

 

 

 

 

 

Watch online

 

 

 

Server 1

 

 

 

 

 

 

 

 

 

 

 

Server 2

 

 

 

 

 

 

 

 

 

 

Server–3

 

 

 

 

 

 

 

 

 

Watch Online DDT Wrestle Shiokobu 2020 01 12

 

 

 

Uploaded By Site DX-TV.com

 

 

 

 

 

Download VIP Members FTP server Download 1 Link and Free Links 

 

 

 

Limited Time will be removed after 90 days if you need available again pm email admin

 

This section is only available to registered users.

 

 

1fichier.com 

 

 

dailyuploads.net

 

 

earn4files.com

 

 

Download with premium account Links 

 

 

nitroflare.com

 

 

rapidgator.net

 

 

uploaded.net

 

 

 

 

 

Categories



Archives