Watch ROH Saturday Night at Center Stage 2020-01-11 720p DX-TV

Watch Online ROH Saturday Night at Center Stage PPV 2020-01-11 720p DX-TV

 

 

wwe raw

 

 

 

 

dx-tv.com

 

 

 

 

Watch ROH Saturday Night at Center Stage 2020-01-11 720p DX-TV

 

 

 

 

 

Complete name : ROH Saturday Night at Center Stage PPV 2020-01-11 720p WEB x264 DX-TV.mp4
Format : MPEG-4
Format profile : Base Media
File size : 1.86 GiB
Duration : 2 h 42 min
Overall bit rate mode : Constant
Overall bit rate : 1 634 kb/s
Writing application : Lavf58.25.100

Video
ID : 1
Format : AVC
Duration : 2 h 42 min
Bit rate mode : Constant
Bit rate : 1 500 kb/s
Width : 1 280 pixels
Height : 720 pixels
Display aspect ratio : 16:9
Frame rate mode : Constant
Frame rate : 30.000 FPS
Color space : YUV
Chroma subsampling : 4:2:0
Bit depth : 8 bits
Scan type : Progressive
Bits/(Pixel*Frame) : 0.054
Stream size : 1.71 GiB (92%)
Codec configuration box : avcC

Audio
ID : 2
Format : AAC LC
Codec ID : mp4a-40-2
Duration : 2 h 42 min
Bit rate mode : Constant
Bit rate : 125 kb/s
Channel(s) : 2 channels
Channel layout : L R
Sampling rate : 48.0 kHz
Frame rate : 46.875 FPS (1024 SPF)
Compression mode : Lossy
Stream size : 146 MiB (8%)
Default : Yes
Alternate group : 1

 

 

 

 

Watch online

 

 

Server 1

 

 

 

watch now

 

 

Watch ROH Saturday Night at Center Stage 2020-01-11 720p DX-TV

 

 

 

Uploaded By Site DX-TV.com

 

 

 

 

 

Download VIP Members FTP server Download 1 Link and Free Links 

 

 

 

Limited Time will be removed after 90 days if you need available again pm email admin

 

This section is only available to registered users.

 

 

1fichier.com 

 

 

dailyuploads.net

 

 

dl.free.fr

 

 

earn4files.com

 

 

katfile.com

 

 

rockfile.co

 

 

Ubloadbank.com

 

 

 

 

Download with premium account Links 

 

 

nitroflare.com

 

 

rapidgator.net

 

 

uploaded.net

 

 

 

 

 

Categories

ADS



Archives