Watch Fight Forever Tribute to Bret Hart 2020-01-11

Watch Online Fight Forever Tribute to Bret Hart 2020-01-11 DX-TV

 

 

wwe raw

 

 

 

 

dx-tv.com

 

 

 

 

Watch Fight Forever Tribute to Bret Hart 2020-01-11 

 

 

Complete name : Fight.Forever.2020.01.11.Tribute.to.Bret.Hart.720p.WEB-DL.x264-ENP.mp4
Format : MPEG-4
Format profile : Base Media
File size : 2.85 GiB
Duration : 3 h 9 min
Overall bit rate : 2 152 kb/s
Writing application : Lavf58.20.100

Video
ID : 1
Format : AVC
Duration : 3 h 9 min
Bit rate : 2 017 kb/s
Nominal bit rate : 2 300 kb/s
Width : 1 280 pixels
Height : 720 pixels
Display aspect ratio : 16:9
Frame rate mode : Constant
Frame rate : 25.000 FPS
Color space : YUV
Chroma subsampling : 4:2:0
Bit depth : 8 bits
Scan type : Progressive
Bits/(Pixel*Frame) : 0.088
Stream size : 2.67 GiB (94%)

Audio
ID : 2
Format : AAC LC
Format/Info : Advanced Audio Codec Low Complexity
Codec ID : mp4a-40-2
Duration : 3 h 9 min
Bit rate mode : Constant
Bit rate : 129 kb/s
Channel(s) : 2 channels
Channel layout : L R
Sampling rate : 48.0 kHz
Frame rate : 46.875 FPS (1024 SPF)
Compression mode : Lossy
Stream size : 174 MiB (6%)
Default : Yes
Alternate group : 1

 

 

All links Updated and  watching online too

 

Watch online

 

 

Server 1

 

 

watch now

 

 

 

 

Watch Fight Forever Tribute to Bret Hart 2020-01-11

 

 

 

Uploaded By Site DX-TV.com

 

 

 

 

 

Download VIP Members FTP server Download 1 Link and Free Links 

 

 

 

Limited Time will be removed after 90 days if you need available again pm email admin

 

[member]

FTP Link Download high speed

[/member]

1fichier.com 

 

dl.free.fr

 

earn4files.com

 

 

Download with premium account Links 

 

nitroflare.com

 

rapidgator.net

 

uploaded.net

 

 

 

 

 

 

 

%d bloggers like this: