Watch ROH/NJPW War of the Worlds 2019/05/08 Night 1 720p WEB HD DX-TV free full show online Fixed

 

 

 

 


 

 

dx-tv.com

 

[EVENT]………..: ROH NJPW War of the Worlds 2019 05 08 Night 1 720p WEB HD x264 DX-TV mp4 
[RELEASED]……..: 2019.05.08 
[SOURCE]……….: WEB HD 
[CONTAINER]…….: mp4 
[SIZE]…………: 3.92 GB 
[Capper Group]….: DX-TV 
[Duration]……..: 3 h 2 m 
[RESOLUTION]……: 1280 x 720 {16:9}@ 29.970 FPS 
[VIDEO]………..: x264 @ 3000 kbps 
[AUDIO]………..: AAC @ 129 kbps 
[language]……..: English 

 

 

Complete name : ROHNJPW War of the Worlds 2019.05.08 Night 1 720p WEB HD x264 DX-TV(1).mp4
Format : MPEG-4
Format profile : Base Media
Codec ID : isom (isom/iso2/avc1/mp41)
File size : 3.92 GiB
Duration : 3 h 2 min
Overall bit rate mode : Constant
Overall bit rate : 3 075 kb/s
Description : description
Copyright : copyright

Video
ID : 1
Format : AVC
Format/Info : Advanced Video Codec
Codec ID : avc1
Codec ID/Info : Advanced Video Coding
Duration : 3 h 2 min
Bit rate mode : Constant
Bit rate : 3 000 kb/s
Width : 1 280 pixels
Height : 720 pixels
Display aspect ratio : 16:9
Frame rate mode : Variable
Frame rate : 30.000 FPS
Minimum frame rate : 29.990 FPS
Maximum frame rate : 30.010 FPS
Color space : YUV
Chroma subsampling : 4:2:0
Bit depth : 8 bits
Scan type : Progressive
Bits/(Pixel*Frame) : 0.109
Stream size : 3.82 GiB (98%)
Language : English
Encoded date : UTC 2019-05-09 02:34:28
Tagged date : UTC 2019-05-09 02:34:28
Codec configuration box : avcC

Audio
ID : 2
Format : AAC LC
Format/Info : Advanced Audio Codec Low Complexity
Codec ID : mp4a-40-2
Duration : 3 h 2 min
Bit rate mode : Constant
Bit rate : 61.4 kb/s
Channel(s) : 2 channels
Channel layout : L R
Sampling rate : 48.0 kHz
Frame rate : 46.875 FPS (1024 SPF)
Compression mode : Lossy
Stream size : 80.1 MiB (2%)
Language : English
Default : Yes
Alternate group : 1
Encoded date : UTC 2019-05-09 02:34:28
Tagged date : UTC 2019-05-09 02:34:28

 

 

 

 

Watch ROH/NJPW War of the Worlds 2019/05/08 Night 1 720p WEB HD DX-TV free full show online Fixed

 

 

 

 

Watch online

 

 

Waiting finish converting video

 

 

Server 1

 

 

 

 


Uploaded By Site DX-TV.com

 

 

 

open rar file to see this password

 

 

 

 

The password : DX-TV.com

 

 

 

 

Uploaded.net + rapidgator.net + katfile.com + bitster.cz

 

 

 

 


 

 

 https://shrt10.com/WgkkWlt
 

 
https://shrt10.com/ObPVz0
 

 
https://shrt10.com/8tUE
 

 
https://shrt10.com/VLmx2b
 

 

 

 

 

 

 

 

Watch ROH/NJPW War of the Worlds 2019/05/08 Night 1 720p WEB HD DX-TV free full show online Fixed