Watch ROH/NJPW War of the Worlds 2019/05/08 Night 1 1080p WEB HD DX-TV free full show online

 

 

 

 


 

 

dx-tv.com

 

 

 

[EVENT]………..: ROH NJPW War of the Worlds 2019 05 08 Night 1 1080p WEB HD x264 DX-TV mp4
[RELEASED]……..: 2019.05.08
[SOURCE]……….: WEB HD
[CONTAINER]…….: mp4
[SIZE]…………: 5.30 GB
[Capper Group]….: DX-TV
[Duration]……..: 2 h 30 m
[RESOLUTION]……: 1920 x 1080 {16:9}@ 29.970 FPS
[VIDEO]………..: x264 @ 1500 kbps
[AUDIO]………..: AAC @ 129 kbps
[language]……..: English

 

 

Complete name : ROHNJPW War of the Worlds 2019.05.08 Night 1 1080p WEB HD x264 DX-TV.mp4
Format : MPEG-4
Format profile : Base Media / Version 2
Codec ID : mp42 (mp42)
File size : 5.37 GiB
Duration : 2 h 30 min
Overall bit rate : 5 109 kb/s
Codirector : codirector
Production studio : studio
ContentType : Unknown Type
Encoded date : UTC 2019-05-09 02:53:38
Tagged date : UTC 2019-05-09 02:53:38

Video
ID : 1
Format : AVC
Format/Info : Advanced Video Codec
Format settings, Reference : 2 frames
Format settings, GOP : M=3, N=25
Codec ID : avc1
Codec ID/Info : Advanced Video Coding
Duration : 2 h 30 min
Bit rate : 5 002 kb/s
Width : 1 920 pixels
Height : 1 080 pixels
Display aspect ratio : 16:9
Frame rate mode : Constant
Frame rate : 30.000 FPS
Color space : YUV
Chroma subsampling : 4:2:0
Bit depth : 8 bits
Scan type : Progressive
Bits/(Pixel*Frame) : 0.080
Stream size : 5.25 GiB (98%)
Language : English
Codec configuration box : avcC

Audio
ID : 2
Format : AAC LC
Format/Info : Advanced Audio Codec Low Complexity
Codec ID : mp4a-40-2
Duration : 2 h 30 min
Bit rate mode : Constant
Bit rate : 99.6 kb/s
Channel(s) : 2 channels
Channel layout : L R
Sampling rate : 48.0 kHz
Frame rate : 46.875 FPS (1024 SPF)
Compression mode : Lossy
Stream size : 107 MiB (2%)
Title : Stereo
Language : English
Default : Yes
Alternate group : 1

 

 

 

 

 

Watch ROH/NJPW War of the Worlds 2019/05/08 Night 1 1080p WEB HD DX-TV free full show online

 

 

 

 

Watch online

 

 

Waiting finish converting video

 

 

Server 1

 

 

 

nbsp;

 


Uploaded By Site DX-TV.com

 

 

 

open rar file to see this password

 

 

 

 

The password : DX-TV.com

 

 

 

 

Uploaded.net + rapidgator.net + katfile.com + bitster.cz

 

 

 

 

 

 

 

 

 

 

 

 

Watch ROH/NJPW War of the Worlds 2019/05/08 Night 1 1080p WEB HD DX-TV free full show online