Watch ROH Honor Reigns Supreme 2020 1080p

Watch Online ROH Honor Reigns Supreme 2020-01-12 1080p DX-TV

 

 

wwe raw

 

 

 

 

dx-tv.com

 

 

 

 

Watch Online ROH Honor Reigns Supreme 2020-01-12 1080p

 

 

 

 

 

Complete name : ROH.2020.01.12.Honor.Reigns.Supreme.1080p.WEB.h264-HEEL.mp4
Format : MPEG-4
Format profile : Base Media
File size : 5.18 GiB
Duration : 3 h 1 min
Overall bit rate : 4 099 kb/s
Writing application : Lavf58.32.104

Video
ID : 1
Format : AVC
Duration : 3 h 1 min
Bit rate : 3 961 kb/s
Width : 1 920 pixels
Height : 1 080 pixels
Display aspect ratio : 16:9
Frame rate mode : Variable
Frame rate : 30.000 FPS
Minimum frame rate : 7.463 FPS
Maximum frame rate : 30.303 FPS
Color space : YUV
Chroma subsampling : 4:2:0
Bit depth : 8 bits
Scan type : Progressive
Bits/(Pixel*Frame) : 0.064
Stream size : 5.01 GiB (97%)
Codec configuration box : avcC

Audio
ID : 2
Format : AAC LC
Codec ID : mp4a-40-2
Duration : 3 h 1 min
Bit rate mode : Constant
Bit rate : 127 kb/s
Channel(s) : 2 channels
Channel layout : L R
Sampling rate : 48.0 kHz
Frame rate : 46.875 FPS (1024 SPF)
Compression mode : Lossy
Stream size : 165 MiB (3%)
Default : Yes
Alternate group : 1

 

 

 

Watch online

 

Server 1

 

 

watch now

 

 

 

Watch Online ROH Honor Reigns Supreme 2020-01-12 1080p

 

 

 

Uploaded By Site DX-TV.com

 

 

 

 

 

Download VIP Members FTP server Download 1 Link and Free Links 

 

 

 

Limited Time will be removed after 90 days if you need available again pm email admin

 

This section is only available to registered users.

1fichier.com 

 

https://1fichier.com/?3fsx8x1oebduuknbe7cd

https://1fichier.com/?k4j9oiwhs60i0jrpc8oc

 

dl.free.fr

 

http://dl.free.fr/vSJTOBM6Q

http://dl.free.fr/iOOuKmEtM

 

earn4files.com

 

https://earn4files.com/m5djmu3fho19

https://earn4files.com/307a030awoe4

 

 

Download with premium account Links 

 

 

nitroflare.com

 

https://shrt10.com/8lGi

https://shrt10.com/BPtF

 

rapidgator.net

 

https://shrt10.com/HmTDDg

https://shrt10.com/SypZ3Jh

 

uploaded.net

 

http://ul.to/36fvx4hg

http://ul.to/p2z5vm6b

 

 

 

 

 

 

 

Categories



Archives