Watch iMPACT Wrestling Hard To Kill 2020 1080p

Watch iMPACT Wrestling Hard To Kill 2020 1080p HDTV Star DX-TV

 

 

wwe raw

 

 

 

 

dx-tv.com

 

 

 

 

Watch iMPACT Wrestling Hard To Kill 2020 1080p HDTV Star

 

 

 

 

 

Complete name : iMPACT.Wrestling.PPV.Hard.To.Kill.2020.1080p.HDTV.x264-Star.mkv
Format : Matroska
Format version : Version 4
File size : 12.9 GiB
Duration : 2 h 52 min
Overall bit rate : 10.8 Mb/s

Video
ID : 1
Format : AVC
Duration : 2 h 52 min
Bit rate : 10.5 Mb/s
Width : 1 920 pixels
Height : 1 080 pixels
Display aspect ratio : 16:9
Frame rate mode : Constant
Frame rate : 25.000 FPS
Color space : YUV
Chroma subsampling : 4:2:0
Bit depth : 8 bits
Scan type : Progressive
Bits/(Pixel*Frame) : 0.203
Stream size : 12.4 GiB (96%)
Color range : Limited
Color primaries : BT.709
Transfer characteristics : BT.709
Matrix coefficients : BT.709

Audio
ID : 2
Format : AC-3
Format/Info : Audio Coding 3
Commercial name : Dolby Digital
Codec ID : A_AC3
Duration : 2 h 52 min
Bit rate mode : Constant
Bit rate : 256 kb/s
Channel(s) : 2 channels
Channel layout : L R
Sampling rate : 48.0 kHz
Frame rate : 31.250 FPS (1536 SPF)
Compression mode : Lossy
Delay relative to video : -5 ms
Stream size : 315 MiB (2%)
Title : Stereo
Language : any
Service kind : Complete Main
Default : Yes
Forced : No

 

 

 

Watch online

 

Server 1

 

 

watch now

 

 

 

 

Watch iMPACT Wrestling Hard To Kill 2020 1080p HDTV Star

 

 

 

Uploaded By Site DX-TV.com

 

 

 

 

 

Download VIP Members FTP server Download 1 Link and Free Links 

 

 

 

Limited Time will be removed after 90 days if you need available again pm email admin

 

This section is only available to registered users.

 

1fichier.com 

 

https://1fichier.com/?svq0ino7cdvrvufzspyh

https://1fichier.com/?8vptgmlz8626jmw0s7u9

https://1fichier.com/?te2ssv63ypkrw27o4odx

 

dailyuploads.net

 

 

dl.free.fr

 

http://dl.free.fr/vteny25mE

http://dl.free.fr/vZVGvhy9m

http://dl.free.fr/i4oNtnN0C

 

earn4files.com

 

https://shrt10.com/mGVpq

https://shrt10.com/ZZEcbXA

https://shrt10.com/jnEyFovW

 

Download with premium account Links 

 

 

nitroflare.com

 

https://shrt10.com/YBSB

https://shrt10.com/UZo5E

https://shrt10.com/Omyh4H

 

rapidgator.net

 

https://shrt10.com/ebimfWN

https://shrt10.com/BgOs

https://shrt10.com/hIVfRRF

 

uploaded.net

 

http://ul.to/er0s0k18

http://ul.to/l6ed944q

http://ul.to/fnuz1mor

 

 

 

 

 

 

 

Categories



Archives