Watch ROH Free Enterprise 2020 02 09 Full Show

Watch ROH Free Enterprise 2020 02 09 Full Show DX-TV

 

 

ROH Free Enterprise

 

 

 

Watch ROH Free Enterprise 2020 02 09 Full Show

 

Complete name : ROH.Free.Enterprise 2020.02.09.mp4
Format : MPEG-4
Format profile : Base Media
Codec ID : isom
File size : 1.34 GiB
Duration : 3 h 43 min
Overall bit rate : 863 kb/s
Writing application : Lavf58.20.100

Video
ID : 1
Format : AVC
Duration : 3 h 43 min
Bit rate : 771 kb/s
Width : 850 pixels
Height : 480 pixels
Display aspect ratio : 16:9
Frame rate mode : Variable
Frame rate : 25.000 FPS
Minimum frame rate : 12.346 FPS
Maximum frame rate : 25.000 FPS
Color space : YUV
Chroma subsampling : 4:2:0
Bit depth : 8 bits
Scan type : Progressive
Bits/(Pixel*Frame) : 0.076
Stream size : 1.21 GiB (90%)
Writing library : x264 core 157

Audio
ID : 2
Format : AAC LC
Format/Info : Advanced Audio Codec Low Complexity
Codec ID : mp4a-40-2
Duration : 3 h 43 min
Bit rate mode : Constant
Bit rate : 80.0 kb/s
Channel(s) : 1 channel
Channel layout : C
Sampling rate : 44.1 kHz
Frame rate : 43.066 FPS (1024 SPF)
Compression mode : Lossy
Stream size : 128 MiB (9%)
Default : Yes
Alternate group : 1

 

Watch online

 

 

Server 1

 

 

watch now

 

 

Watch ROH Free Enterprise 2020 02 09 Full Show

 

 

 

Uploaded By Site DX-TV.com

 

 

 

 

1fichier.comĀ 

 

 

DDL.to

 

 

earn4files.com

 

rockfile.co

 

 

 

Download with premium account LinksĀ 

 

 

nitroflare.com

 

 

rapidgator.net

 

 

Keep2Share.cc

 

 

Uploadgig.com

 

 

 

dx-tv.com

You May Also Like