UFC 247 PPV Jones vs Reyes 720p Star

 UFC 247 PPV Jones vs Reyes 720p Star DX-TV

 

 UFC 247

 

UFC 247 PPV Jones vs Reyes 720p Star

247

Complete name : UFC.247.PPV.Jones.vs.Reyes.720p.HDTV.x264-Star.mkv
Format : Matroska
Format version : Version 4
File size : 8.55 GiB
Duration : 3 h 28 min
Overall bit rate : 5 881 kb/s
Writing library : Lavf58.29.100

Video
ID : 1
Format : AVC
Duration : 3 h 28 min
Bit rate : 5 500 kb/s
Width : 1 280 pixels
Height : 720 pixels
Display aspect ratio : 16:9
Frame rate mode : Constant UFC  
Frame rate : 25.000 FPS
Color space : YUV
Chroma subsampling : 4:2:0
Bit depth : 8 bits
Scan type : Progressive
Bits/(Pixel*Frame) : 0.239
Stream size : 7.83 GiB (91%)
Color range : Limited
Color primaries : BT.709 
Transfer characteristics : BT.709
Matrix coefficients : BT.709

Audio
ID : 2
Format : AC-3
Codec ID : A_AC3
Duration : 3 h 28 min
Bit rate mode : Constant
Bit rate : 384 kb/s
Channel(s) : 6 channels
Channel layout : L R C LFE Ls Rs
Sampling rate : 48.0 kHz
Frame rate : 31.250 FPS (1536 SPF)
Compression mode : Lossy
Delay relative to video : -5 ms
Stream size : 572 MiB (7%)
Title : Surround
Language : any
Default : Yes
Forced : No

 

 

Watch online

 

 

Server 1

 

 

watch now

 

UFC 247 PPV Jones vs Reyes 720p Star

UFC

 

Uploaded By Site DX-TV.com

 

 

 

1fichier.com 

 

 https://shrt10.com/BOSd3
https://shrt10.com/QHt63O

 

earn4files.com

 

 https://shrt10.com/wPvWfm5
https://shrt10.com/oBdrq8f

 

 

Download with premium account Links 

 

 

Keep2Share

 

 

nitroflare.com

 

 

rapidgator.net

 

 

uploadgig.com

 

UFC 247

 

dx-tv.com

 

Leave a Reply

Your email address will not be published. Required fields are marked *

This site uses Akismet to reduce spam. Learn how your comment data is processed.

%d bloggers like this: